<?xml version="1.0" standalone="no"?>
<!DOCTYPE svg PUBLIC "-//W3C//DTD SVG 1.1//EN" "http://www.w3.org/Graphics/SVG/1.1/DTD/svg11.dtd" >
<svg xmlns="http://www.w3.org/2000/svg">
<metadata>
This is a custom SVG font generated by IcoMoon.
<iconset grid="32"></iconset>
</metadata>
<defs>
<font id="linecons" horiz-adv-x="1024" >
<font-face units-per-em="1024" ascent="960" descent="-64" />
<missing-glyph horiz-adv-x="1024" />
<glyph class="hidden" unicode="&#xf000;" d="M0,960L 1024 -64L0 -64 z" horiz-adv-x="0" />
<glyph unicode="&#xe000;" d="M 768,960L 256,960C 202.944,960, 160,917.024, 160,864l0-832 c0-53.056, 42.976-96, 96-96l 512,0 c 52.992,0, 96,43.008, 96,96L 864,864 C 864,917.056, 820.992,960, 768,960z
		 M 800,32c0-17.632-14.368-32-32-32L 256,0 c-17.664,0-32,14.304-32,32l0,64.128 l 576,0 L 800,32 z M 800,128.128L 224,128.128 L 224,768 L 800,768L 800,128.128 z M 800,800L 224,800L 224,864 c0,17.664, 14.336,32, 32,32
		L 768,896c 17.632,0, 32-14.336, 32-32L 800,800 zM 576,848C 576,839.168, 568.8,832, 560,832l-96,0 C 455.136,832, 448,839.168, 448,848l0,0C 448,856.864, 455.136,864, 464,864l 96,0 
		C 568.8,864, 576,856.864, 576,848L 576,848zM 544,48.128c0-8.8-7.2-16-16-16l-32,0 c-8.832,0-16,7.2-16,16l0,0c0,8.864, 7.168,16, 16,16l 32,0 
		C 536.8,64.128, 544,56.992, 544,48.128L 544,48.128z" data-tags="phone, tablet, mobile" />
<glyph unicode="&#xe001;" d="M 928,960L 224,960 C 170.976,960, 128,917.056, 128,864l0-64 L 96,800 C 42.976,800,0,757.056,0,704l0-640 
		c0-70.688, 57.312-128, 128-128l 768,0 c 70.688,0, 128,57.312, 128,128L 1024,864 C 1024,917.056, 980.992,960, 928,960z M 960,64c0-35.264-28.736-64-64-64L 128,0 c-35.296,0-64,28.736-64,64L 64,704 
		c0,17.664, 14.336,32, 32,32l 32,0 l0-640 c0-17.696, 14.304-32, 32-32s 32,14.304, 32,32L 192,864 c0,17.664, 14.336,32, 32,32l 704,0 c 17.632,0, 32-14.336, 32-32L 960,64 zM 623.936,543.84 C 615.136,543.84 607.936,551.008 607.936,559.84 C 607.936,568.672 615.136,575.84 623.936,575.84 L 879.936,575.84 C 888.8,575.84 895.936,568.672 895.936,559.84 C 895.936,551.008 888.8,543.84 879.936,543.84 L 623.936,543.84 ZM 623.936,639.84 C 615.136,639.84 607.936,647.008 607.936,655.84 C 607.936,664.672 615.136,671.84 623.936,671.84 L 879.936,671.84 C 888.8,671.84 895.936,664.672 895.936,655.84 C 895.936,647.008 888.8,639.84 879.936,639.84 L 623.936,639.84 ZM 623.936,735.84 C 615.136,735.84 607.936,743.008 607.936,751.84 C 607.936,760.672 615.136,767.84 623.936,767.84 L 879.936,767.84 C 888.8,767.84 895.936,760.672 895.936,751.84 C 895.936,743.008 888.8,735.84 879.936,735.84 L 623.936,735.84 ZM 528,95.872 C 536.832,95.872 544,88.672 544,79.872 C 544,71.008 536.8,63.872 528,63.872 L 272,63.872 C 263.168,63.872 256,71.008 256,79.872 C 256,88.672 263.168,95.872 272,95.872 L 528,95.872 ZM 528,191.872 C 536.832,191.872 544,184.672 544,175.872 C 544,167.008 536.8,159.872 528,159.872 L 272,159.872 C 263.168,159.872 256,167.008 256,175.872 C 256,184.672 263.168,191.872 272,191.872 L 528,191.872 ZM 528,287.872 C 536.832,287.872 544,280.672 544,271.872 C 544,263.008 536.8,255.872 528,255.872 L 272,255.872 C 263.168,255.872 256,263.008 256,271.872 C 256,280.672 263.168,287.872 272,287.872 L 528,287.872 ZM 880,95.872 C 888.8,95.872 896,88.672 896,79.872 C 896,71.008 888.8,63.872 880,63.872 L 624,63.872 C 615.136,63.872 608,71.008 608,79.872 C 608,88.672 615.136,95.872 624,95.872 L 880,95.872 ZM 880,191.872 C 888.8,191.872 896,184.672 896,175.872 C 896,167.008 888.8,159.872 880,159.872 L 624,159.872 C 615.136,159.872 608,167.008 608,175.872 C 608,184.672 615.136,191.872 624,191.872 L 880,191.872 ZM 880,287.872 C 888.8,287.872 896,280.672 896,271.872 C 896,263.008 888.8,255.872 880,255.872 L 624,255.872 C 615.136,255.872 608,263.008 608,271.872 C 608,280.672 615.136,287.872 624,287.872 L 880,287.872 ZM 880,479.872 C 888.8,479.872 896,472.704 896,463.872 C 896,455.040 888.8,447.872 880,447.872 L 272,447.872 C 263.168,447.872 256,455.040 256,463.872 C 256,472.704 263.168,479.872 272,479.872 L 880,479.872 ZM 880,383.872 C 888.8,383.872 896,376.672 896,367.872 C 896,359.008 888.8,351.872 880,351.872 L 272,351.872 C 263.168,351.872 256,359.008 256,367.872 C 256,376.672 263.168,383.872 272,383.872 L 880,383.872 ZM 288,544l 224,0 c 17.696,0, 32,14.304, 32,32L 544,799.872 c0,17.696-14.304,32-32,32L 288,831.872 
		c-17.696,0-32-14.304-32-32L 256,576 C 256,558.336, 270.304,544, 288,544z M 320,768l 160,0 l0-160 l-160,0 L 320,768 z" data-tags="news, paper" />
<glyph unicode="&#xe002;" d="M 864,960L 160,960 C 89.312,960, 32,902.688, 32,832l0-768 c0-70.688, 57.312-128, 128-128l 704,0 c 70.688,0, 128,57.312, 128,128L 992,832 C 992,902.688, 934.688,960, 864,960z
		 M 928,64c0-35.264-28.736-64-64-64L 160,0 c-35.296,0-64,28.736-64,64L 96,832 c0,35.296, 28.704,64, 64,64l 704,0 c 35.264,0, 64-28.704, 64-64L 928,64 zM 832,832L 192,832 C 174.304,832, 160,817.696, 160,800l0-576 c0-17.696, 14.304-32, 32-32l 640,0 c 17.696,0, 32,14.304, 32,32L 864,800 C 864,817.696, 849.696,832, 832,832z
		 M 832,800l0-443.808 l-104,112.96C 721.888,476.064, 713.184,480, 704,480s-17.952-3.936-24-10.848l-83.328-94.4l-252.672,286.4
		C 337.92,668.064, 329.184,672, 320,672S 302.080,668.064, 296,661.152L 192,541.216L 192,800 L 832,800 z M 192,492.8l 128,147.2l 258.112-292.576l 18.56-21.056L 685.056,224L 192,224 L 192,492.8 z
		 M 727.68,224l-109.696,126.56L 704,448l 128-140.128L 832,224 L 727.68,224 zM 640,544c 52.992,0, 96,42.976, 96,96s-43.008,96-96,96c-53.056,0-96-42.976-96-96S 586.944,544, 640,544z M 640,704c 35.264,0, 64-28.704, 64-64
		s-28.736-64-64-64c-35.328,0-64,28.704-64,64S 604.672,704, 640,704z" data-tags="photo, image, picture" />
<glyph unicode="&#xe003;" d="M 1004.8,601.6l-96,127.936c-3.744,5.024-8.192,9.376-12.8,13.536L 896,896 c0,35.328-28.672,64-64,64L 192,960 
	C 156.64,960, 128,931.328, 128,896l0-152.96 C 123.392,738.912, 118.944,734.592, 115.2,729.6l-95.968-127.968C 6.816,585.12,0,564.672,0,544l0-32 c0-52.928, 43.072-96, 96-96l0,0 l0-416 
	c0-35.328, 28.672-64, 64-64l 704,0 c 35.328,0, 64,28.672, 64,64L 928,416 l0,0c 52.928,0, 96,43.072, 96,96l0,32 C 1024,564.672, 1017.184,585.12, 1004.8,601.6z M 832,896l0-128 L 192,768 l0,0 L 192,896 L 832,896 z
	 M 326.176,480L 192.128,480 l 128,224l 70.048,0 L 326.176,480z M 423.488,704L 496,704 l0-224 l-136.512,0 L 423.488,704z M 528,704l 72.512,0 l 64-224L 528,480 L 528,704 z M 633.76,704l 70.048,0 l 128-224l-134.048,0 
	L 633.76,704z M 64,512l0,32 c0,6.944, 2.24,13.664, 6.4,19.2l 96,128C 172.448,699.264, 181.92,704, 192,704l 91.264,0 l-128-224L 96,480 C 78.336,480, 64,494.304, 64,512z M 640,0l-240,0 L 400,320 
	L 640,320 L 640,0 z M 864,0l-192,0 L 672,320 c0,17.696-14.368,32-32,32l-240,0 c-17.664,0-32-14.304-32-32l0-320 L 160,0 L 160,416 l 704,0 L 864,0 z M 960,512c0-17.696-14.304-32-32-32l-59.328,0 l-128,224L 832,704 l0,0
	c 10.048,0, 19.552-4.736, 25.568-12.8l 96-128C 957.76,557.664, 960,550.944, 960,544L 960,512 z" data-tags="shop, store" />
<glyph unicode="&#xe004;" d="M 512,320A64,64 900 1 0 640,320A64,64 900 1 0 512,320zM 928.032,544C 928,544, 928,544, 928.032,544L 928,736L 928,752 L 928,832 c0,53.024-43.008,96-96,96l-128,0 L 176,928 C 78.944,928,0,849.024,0,752l0-640 
		C0,14.976, 78.944-64, 176-64l 576,0 c 97.024,0, 176,78.976, 176,176L 928,160 c0,0,0,0, 0.032,0C 1055.968,256.032, 1055.968,447.968, 928.032,544z M 176,864L 704,864 l 128,0 
		c 17.632,0, 32-14.336, 32-32l0-80 L 864,736 l0-101.888 C 853.952,637.696, 843.264,640, 832,640l-0.032,0 L 831.968,672 L 831.968,736 L 831.968,800 c0,17.696-14.336,32-32,32l-672,0 c-17.664,0-32-14.304-32-32l0-64 
		l0-62.176 C 76.224,694.016, 64,721.536, 64,752C 64,813.856, 114.112,864, 176,864z M 799.968,768l-672,0 L 127.968,800 l 672,0 L 799.968,768 z M 799.968,736l0-32 l-672,0 L 127.968,736 L 799.968,736 z M 799.968,672l0-32 L 704,640 L 176,640 
		c-17.28,0-33.408,4.224-48,11.2L 128,672 L 799.968,672 z M 864,112c0-61.856-50.144-112-112-112l-576,0 C 114.112,0, 64,50.144, 64,112L 64,616.352 
		C 94.432,591.168, 133.472,576, 176,576L 704,576 l 128,0 c 17.632,0, 32-14.336, 32-32l0-64 l-288,0 c-88.384,0-160-71.616-160-160s 71.648-160, 160-160l 288,0 L 864,112 z M 904.864,224L 576,224 
		c-52.928,0-96,43.072-96,96s 43.072,96, 96,96l 288,0 c 19.744,0.256, 39.328,9.824, 51.264,25.728c 3.328,4.48, 5.92,9.504, 8,14.752
		c 0.288,0.704, 0.8,1.248, 1.056,1.984C 947.328,428.288, 960,391.296, 960,352C 960,302.784, 940.128,257.12, 904.864,224z" data-tags="wallet, money, cash" />
<glyph unicode="&#xe005;" d="M 1000,753.984l-160,128C 828.64,891.072, 814.496,896, 800,896L 224,896 
		C 209.472,896, 195.36,891.072, 184,881.984l-160-128C 3.072,737.216-5.184,709.184, 3.296,683.744l 64-192c 6.304-18.912, 21.088-33.824, 39.968-40.288
		C 113.984,449.152, 121.024,448, 128,448c 11.136,0, 22.176,2.912, 32,8.576L 160,64 c0-35.328, 28.672-64, 64-64l 576,0 c 35.328,0, 64,28.672, 64,64L 864,456.576 
		C 873.824,450.912, 884.864,448, 896,448c 7.008,0, 14.016,1.152, 20.736,3.456c 18.88,6.464, 33.632,21.376, 39.936,40.288l 64,192
		C 1029.184,709.184, 1020.928,737.216, 1000,753.984z M 632.128,832C 614.432,794.848, 567.552,768, 512,768c-55.552,0-102.464,26.848-120.128,64L 632.128,832 z M 896,512l-96,64
		l0-512 L 224,64 L 224,576 l-96-64L 64,704l 160,128l 133.664,0 C 375.488,776.896, 437.536,736, 512,736c 74.432,0, 136.512,40.896, 154.304,96L 800,832 l 160-128L 896,512z" data-tags="t-shirt, team, group" />
<glyph unicode="&#xe006;" d="M 934.176,791.52c-116.128,115.072-301.824,117.472-422.112,9.216
		C 391.744,908.992, 206.112,906.592, 89.92,791.52c-119.712-118.528-119.712-310.688,0-429.28c 34.208-33.888, 353.696-350.112, 353.696-350.112
		c 37.856-37.504, 99.072-37.504, 136.896,0c0,0, 349.824,346.304, 353.696,350.112C 1053.952,480.832, 1053.952,672.992, 934.176,791.52z M 888.576,407.424
		L 534.88,57.312c-12.576-12.512-33.088-12.512-45.6,0L 135.584,407.424c-94.4,93.44-94.4,245.472,0,338.912
		c 91.008,90.080, 237.312,93.248, 333.088,7.104l 43.392-39.040l 43.36,39.040c 95.808,86.144, 242.112,83.008, 333.12-7.104
		C 982.944,652.928, 982.944,500.896, 888.576,407.424zM 296.096,719.968 C 304.96,719.968 312.096,712.8 312.096,703.968 C 312.096,695.136 304.928,687.968 296.096,687.968 L 296.064,687.968 C 238.656,687.968 192.096,641.408 192.096,584 L 192.096,583.968 C 192.096,575.136 184.928,567.968 176.096,567.968 C 167.264,567.968 160.096,575.136 160.096,583.968 L 160.096,583.968 C 160.096,659.040 220.928,719.872 295.968,719.936 C 296.032,719.936 296.032,719.968 296.096,719.968 Z" data-tags="heart, love, like" />
<glyph unicode="&#xe007;" d="M 829.248,539.424C 815.264,685.44, 693.696,800, 544,800
	c-115.808,0-214.944-68.736-260.672-167.36C 269.568,636.992, 255.232,640, 240.032,640c-79.52,0-144-64.512-144-144c0-15.808, 3.168-30.752, 7.872-44.928
	c-61.856-36.064-103.872-102.24-103.872-179.008c0-114.88, 93.12-208, 208-208L 208.032,64 L 784,64 l0,0.064 c 132.576,0, 240,107.424, 240,240
	C 1024,421.056, 940.128,518.24, 829.248,539.424z M 784,128.064L 784,128 L 208.032,128 c-79.392,0.064-144,64.64-144,144.064c0,51.2, 26.976,97.44, 72.128,123.744
	c 43.872,25.184, 46.88,30.176, 28.48,75.424c-3.104,9.312-4.608,17.408-4.608,24.736c0,44.128, 35.872,80, 80,80c0,0, 20.992,1.504, 43.296-7.36
	c 36.704-14.624, 40.704-0.64, 58.048,37.088C 378.080,684.832, 457.6,736, 544,736c 115.2,0, 210.432-87.136, 221.568-202.688c 3.936-45.824, 3.936-45.824, 51.68-56.736
	C 900,460.768, 960,388.192, 960,304.064C 960,207.008, 881.056,128.064, 784,128.064z" data-tags="cloud, weather" />
<glyph unicode="&#xe008;" d="M 864,800.128L 160,800C 142.304,800, 128,785.824, 128,768.128l0-448 c0-17.696, 14.304-32, 32-32l 704,0 c 17.696,0, 32,14.304, 32,32l0,448 
		C 896,785.824, 881.696,800.128, 864,800.128z M 864,320L 160,320 L 160,768.128 l 704,0 L 864,320 zM 928,928L 96,928 C 42.976,928,0,885.056,0,832l0-640 c0-52.928, 42.816-95.808, 95.68-95.936L 416,96.064 l0-38.944 l-199.744-25.952
		C 201.984,27.616, 192,14.816, 192,0.128c0-17.696, 14.304-32, 32-32l 576,0 c 17.696,0, 32,14.304, 32,32c0,14.688-9.984,27.488-24.256,31.072L 608,57.12l0,38.944 
		l 320.32,0 C 981.184,96.192, 1024,139.072, 1024,192L 1024,832 C 1024,885.056, 980.992,928, 928,928z M 960,192c0-17.632-14.368-32-32-32l-288,0 l-256,0 L 96,160 c-17.664,0-32,14.368-32,32L 64,832 
		c0,17.664, 14.336,32, 32,32l 832,0 c 17.632,0, 32-14.336, 32-32L 960,192 z" data-tags="display, screen, pc, computer, desktop" />
<glyph unicode="&#xe009;" d="M 1005.248,650.336l-162.56,162.592C 830.688,824.928, 814.368,831.68, 797.44,831.68L 226.592,831.68 
	c-16.96,0-33.248-6.752-45.248-18.752l-162.56-162.592C 6.208,637.792-0.064,621.248,0,604.672c 0.096-15.040, 5.472-30.048, 16.192-42.112
	l 447.968-477.056C 476.32,71.808, 493.728,64, 512,64c 18.272,0, 35.68,7.808, 47.808,21.504l 448,477.056c 10.944,12.32, 16.32,27.744, 16.192,43.136
	C 1023.872,621.888, 1017.568,638.016, 1005.248,650.336z M 583.008,607.68L 440.96,607.68 L 512,666.848L 583.008,607.68z M 537.024,687.68l 87.424,72.896l 64.576-64.576
	L 608,628.512L 537.024,687.68z M 416,628.512L 334.976,696l 64.576,64.576l 87.456-72.896L 416,628.512z M 591.68,575.68L 512,177.184L 432.32,575.68L 591.68,575.68 z
	 M 624.32,575.68l 156.992,0 l-235.488-392.608L 624.32,575.68z M 632.928,607.68l 78.816,65.632l 65.632-65.632L 632.928,607.68 z M 662.624,767.68l 112.384,0 l-61.312-51.104
	L 662.624,767.68z M 512,708.48l-71.040,59.2l 142.016,0 L 512,708.48z M 310.272,716.576L 248.96,767.68l 112.416,0 L 310.272,716.576z M 312.256,673.312l 78.784-65.632L 246.624,607.68 
	L 312.256,673.312z M 399.68,575.68l 78.496-392.608L 242.656,575.68L 399.68,575.68 z M 406.528,240.384L 91.648,575.68l 113.728,0 L 406.528,240.384z M 818.624,575.68l 113.76,0 
	l-314.944-335.36L 818.624,575.68z M 822.624,607.68l-86.176,86.176l 73.504,61.28l 147.424-147.456L 822.624,607.68 z M 213.952,755.2l 73.632-61.344L 201.376,607.68L 64.192,607.68 
	L 213.952,755.2z" data-tags="diamond, gem" />
<glyph unicode="&#xe00a;" d="M 1005.28,621.248l-320,320C 669.408,957.12, 646.4,963.488, 624.608,958.112
		c-11.488-2.816-21.76-8.736-29.888-16.864c-7.264-7.264-12.736-16.256-15.872-26.304c-14.496-47.008-39.552-87.872-76.64-124.928
		C 452.672,740.512, 388.16,703.008, 319.904,663.36c-72.448-41.984-147.296-85.504-208.64-146.816c-52.128-52.192-87.616-110.24-108.416-177.632
		c-7.008-22.752-0.896-47.36, 15.872-64.192l 320-320c 15.872-15.872, 38.88-22.24, 60.672-16.864c 11.488,2.88, 21.76,8.736, 29.888,16.864
		c 7.264,7.264, 12.736,16.256, 15.872,26.368c 14.528,47.008, 39.584,87.872, 76.704,124.928c 49.504,49.504, 113.984,86.944, 182.304,126.56
		c 72.384,42.048, 147.264,85.568, 208.576,146.88c 52.128,52.128, 87.616,110.24, 108.448,177.632C 1028.16,579.808, 1022.016,604.512, 1005.28,621.248z M 384,0
		C 278.016,105.984, 169.984,214.048, 64,320c 90.944,294.432, 485.12,281.568, 576,576c 105.984-105.952, 214.048-214.016, 320.064-320
		C 869.088,281.632, 474.912,294.432, 384,0zM 625.984,483.2c-10.432,8.736-20.928,14.688-31.488,17.632
		c-10.496,2.944-20.992,4.128-31.616,3.36c-10.496-0.8-21.248-3.2-32-7.328c-10.752-4.192-21.568-8.736-32.448-14.016
		c-17.184,19.744-34.368,39.264-51.552,57.376c 7.744,7.008, 15.264,10.56, 22.496,10.816c 7.264,0.32, 14.24-0.448, 20.864-2.112
		c 6.752-1.696, 12.928-3.136, 18.624-4.256c 5.76-1.12, 10.752,0.128, 15.136,3.808c 4.64,4, 7.2,9.184, 7.552,15.424
		c 0.32,6.304-2.048,12.448-7.328,18.432c-6.752,7.744-14.88,12.448-24.64,14.176c-9.632,1.696-19.488,1.568-29.76-0.672
		c-10.112-2.304-19.744-6.112-28.864-11.488s-16.448-10.88-21.888-16.256c-2.080,1.984-4.16,3.936-6.24,5.888
		c-2.304,2.112-5.184,3.264-8.64,3.2c-3.488,0-6.368-1.504-8.736-4.256c-2.304-2.688-3.36-5.824-2.944-9.12
		c 0.32-3.424, 1.696-6.048, 4.064-8.064c 2.080-1.76, 4.16-3.488, 6.24-5.312c-8.192-9.888-14.944-20.8-20.256-32.32
		c-5.376-11.552-8.576-23.008-9.76-34.112c-1.248-11.2-0.064-21.44, 3.36-30.944c 3.424-9.568, 9.76-17.696, 19.008-25.376
		c 15.072-12.512, 32.8-17.824, 53.376-16.64c 20.512,1.248, 42.624,7.36, 66.4,20.128c 18.88-21.824, 37.824-43.488, 56.736-63.616
		c-8-6.752-15.008-10.624-21.184-11.872c-6.176-1.312-11.68-1.184-16.672,0.32c-4.992,1.568-9.632,3.808-13.888,6.688
		c-4.256,2.944-8.448,5.44-12.64,7.488c-4.128,2.048-8.384,3.2-12.736,3.264s-8.992-2.048-14.112-6.432
		c-5.248-4.576-7.872-9.888-7.872-15.872c0-5.952, 2.752-12, 8.128-18.112c 5.44-6.112, 12.512-11.264, 21.056-15.328
		s 18.208-6.624, 28.832-7.328c 10.624-0.736, 21.824,0.864, 33.632,5.248c 11.872,4.32, 23.616,12.128, 35.2,23.744
		c 5.568-5.44, 11.2-10.624, 16.8-15.616c 2.368-2.048, 5.248-3.072, 8.736-2.816c 3.36,0.128, 6.304,1.696, 8.64,4.512
		c 2.368,2.88, 3.36,6.048, 3.008,9.376c-0.32,3.36-1.696,5.952-4,7.808c-5.632,4.512-11.264,9.248-16.864,14.24
		c 9.568,11.744, 17.248,24.128, 22.944,36.384c 5.696,12.32, 9.056,24.192, 10.176,35.2c 1.12,11.072-0.192,21.056-3.808,30.112
		C 641.472,467.744, 635.104,475.616, 625.984,483.2z M 447.072,461.504c-9.056-0.384-16.96,2.624-23.872,9.312
		c-2.944,2.816-4.992,6.24-6.24,10.304c-1.312,4.064-1.76,8.512-1.248,13.376c 0.448,4.8, 1.888,9.824, 4.384,14.88
		c 2.368,5.056, 5.888,10.112, 10.368,15.008c 16.224-16.128, 32.416-33.824, 48.64-52.128C 466.816,465.504, 456.128,461.888, 447.072,461.504z
		 M 598.016,397.44c-2.88-5.312-6.176-10.048-10.048-14.176c-17.952,18.112-35.872,38.016-53.76,58.432c 4.576,2.048, 9.376,4.192, 14.56,6.368
		s 10.368,3.616, 15.552,4.512c 5.312,0.8, 10.56,0.576, 15.808-0.672c 5.184-1.312, 10.112-4.128, 14.688-8.576
		c 4.512-4.512, 7.36-9.184, 8.512-14.24c 1.248-5.12, 1.312-10.304, 0.448-15.616C 602.848,408.128, 600.96,402.816, 598.016,397.44zM 470.944,250.24 C 477.248,255.328 486.528,255.072 492.32,249.184 C 498.592,242.944 498.592,232.736 492.32,226.496 C 491.808,225.984 491.264,225.632 490.688,225.184 L 490.752,225.12 C 470.496,209.728 453.856,195.872 435.904,177.92 C 419.68,161.728 405.024,144.672 392.352,127.36 L 371.904,99.36 C 371.264,98.208 370.496,97.152 369.536,96.16 C 363.264,89.92 353.056,89.92 346.816,96.16 C 341.376,101.6 340.704,109.984 344.704,116.224 L 344.64,116.288 L 366.528,146.176 C 380.192,164.864 395.904,183.168 413.28,200.544 C 431.36,218.688 450.88,234.88 470.88,250.24 L 470.944,250.24 ZM 588.096,713.12 C 604.288,729.312 618.912,746.304 631.616,763.712 L 652.864,792.832 C 653.632,794.208 654.496,795.584 655.68,796.768 C 661.984,803.072 672.192,803.072 678.496,796.768 C 684.48,790.752 684.736,781.248 679.296,774.88 L 679.36,774.816 L 657.472,744.8 C 643.776,726.112 628.096,707.872 610.72,690.496 C 592.64,672.416 573.152,656.16 553.152,640.8 L 553.024,640.864 C 546.656,635.008 536.768,635.136 530.656,641.312 C 524.352,647.616 524.352,657.888 530.656,664.192 C 531.776,665.376 533.088,666.208 534.4,666.944 C 553.216,681.312 571.36,696.384 588.096,713.12 Z" data-tags="banknote, check, bill, money, cash" />
<glyph unicode="&#xe00b;" d="M 512,960C 296.192,960, 64,894.944, 64,752l0-608 C 64,1.12, 296.192-64, 512-64c 215.776,0, 448,65.12, 448,208l0,608 
		C 960,894.944, 727.744,960, 512,960z M 896,144c0-79.488-171.936-144-384-144c-212.096,0-384,64.512-384,144l0,119.552 C 194.112,195.424, 353.6,160, 512,160
		c 158.4,0, 317.888,35.424, 384,103.552L 896,144 z M 896,336l-0.128,0 c0-0.32, 0.128-0.672, 0.128-0.992C 896,256, 724.064,192, 512,192c-212.064,0-384,64-384,143.008
		c0,0.32, 0.128,0.672, 0.128,0.992L 128,336 l0,119.552 C 194.112,387.424, 353.6,352, 512,352c 158.4,0, 317.888,35.424, 384,103.552L 896,336 z M 896,528l-0.128,0 
		c0-0.32, 0.128-0.672, 0.128-0.992C 896,448, 724.064,384, 512,384c-212.064,0-384,64-384,143.008c0,0.32, 0.128,0.672, 0.128,0.992L 128,528 l0,109.952 
		C 211.872,574.048, 365.6,544, 512,544c 146.4,0, 300.128,30.048, 384,93.952L 896,528 z M 512,608C 299.904,608, 128,672.512, 128,752C 128,831.552, 299.904,896, 512,896
		c 212.064,0, 384-64.448, 384-144C 896,672.512, 724.064,608, 512,608zM 768,128A32,32 900 1 0 832,128A32,32 900 1 0 768,128zM 768,320A32,32 900 1 0 832,320A32,32 900 1 0 768,320zM 768,512A32,32 900 1 0 832,512A32,32 900 1 0 768,512z" data-tags="data, database, storage" />
<glyph unicode="&#xe00c;" d="M 1001.152,944.992C 989.536,954.752, 974.976,960, 960.032,960c-3.68,0-7.424-0.32-11.136-0.992l-544.064-96
	C 374.24,857.632, 351.968,831.072, 351.968,800l0-64 l0-32 l0-453.44 C 319.488,274.112, 277.344,288, 230.56,288c-27.2,0-54.4-4.512-80.928-13.312
	C 88.896,254.432, 40.192,213.824, 16,163.2c-18.688-39.136-21.088-81.696-6.848-119.872C 33.504-21.888, 102.688-64, 185.408-64
	c 27.2,0, 54.4,4.448, 80.896,13.312c 60.704,20.192, 109.408,60.8, 133.6,111.36c 10.4,21.824, 15.264,44.672, 15.456,67.328l 0.576,0 L 415.936,640 
	c 3.68,0, 7.424,0.32, 11.136,0.928l 532.96,94.048L 960.032,346.56 C 927.52,370.112, 885.408,384, 838.592,384c-27.2,0-54.432-4.512-80.928-13.312
	c-60.736-20.256-109.44-60.864-133.568-111.488c-18.688-39.136-21.12-81.696-6.88-119.872C 641.6,74.112, 710.72,32, 793.472,32
	c 27.2,0, 54.432,4.448, 80.928,13.312c 60.672,20.192, 109.376,60.8, 133.568,111.36c 10.432,21.824, 15.264,44.672, 15.488,67.328l 0.576,0 L 1024.032,800 L 1024.032,832 L 1024.032,896 
	C 1024.032,914.88, 1015.648,932.864, 1001.152,944.992z M 246.016,9.984c-76.672-25.568-155.936-0.576-176.928,55.68c-21.056,56.32, 24.032,122.688, 100.672,148.256
	c 76.672,25.568, 155.936,0.64, 176.928-55.68C 367.776,101.952, 322.688,35.552, 246.016,9.984z M 852.896,105.984c-76.736-25.568-156-0.576-176.992,55.68
	c-21.056,56.32, 24.064,122.688, 100.672,148.256c 76.736,25.568, 156,0.64, 176.992-55.68C 974.656,197.952, 929.6,131.552, 852.896,105.984z M 958.72,800
	L 414.656,704L 414.656,736 L 414.656,800 L 958.72,896l0-64 L 958.72,800 z" data-tags="music, songs, audio" />
<glyph unicode="&#xe00d;" d="M 512.064,392.128c 105.888,0, 192,86.144, 192,192s-86.112,192-192,192
		c-105.888,0-192-86.112-192-192S 406.176,392.128, 512.064,392.128z M 512.064,744.128c 88.256,0, 160-71.744, 160-160s-71.744-160-160-160c-88.256,0-160,71.744-160,160
		S 423.808,744.128, 512.064,744.128zM 512,960C 300.224,960, 128,789.888, 128,575.968c0-224, 192.032-453.152, 332.032-614.208
		C 460.544-38.88, 483.008-64, 510.784-64c 0.064,0, 2.336,0, 2.464,0c 27.744,0, 50.24,25.12, 50.752,25.76
		c 140.064,161.056, 332.064,390.176, 332.064,614.208C 896.064,789.888, 723.808,960, 512,960z M 515.744,3.744c-0.672-0.64-2.624-2.048-4.32-3.136
		c-0.32,0.864-2.688,2.752-4.128,4.256C 390.016,139.808, 192,367.552, 192,575.968C 192,752.416, 335.584,896, 512,896c 176.512,0, 320.064-143.584, 320.064-320.064
		C 832.064,367.552, 634.048,139.808, 515.744,3.744z" data-tags="location, map" />
<glyph unicode="&#xe00e;" d="M 1020.192,558.176c-8.864,25.568-31.616,44.288-59.008,48.352l-266.432,39.616l-115.808,240.448
	C 566.752,911.84, 540.672,928, 512,928c-28.672,0-54.752-16.16-66.944-41.408l-115.808-240.448l-266.464-39.616c-27.36-4.064-50.112-22.784-58.944-48.352
	c-8.8-25.632-2.144-53.856, 17.184-73.12l 195.264-194.944l-45.28-270.432C 166.4-7.552, 178.208-34.88, 201.344-50.816
	C 214.048-59.552, 228.992-64, 243.936-64c 12.288,0, 24.608,3.008, 35.776,8.992L 512,70.048l 232.32-125.056C 755.488-60.992, 767.808-64, 780.064-64
	c 14.944,0, 29.888,4.448, 42.624,13.184c 23.136,15.936, 34.88,43.264, 30.304,70.496l-45.312,270.432l 195.328,194.944
	C 1022.304,504.352, 1028.928,532.576, 1020.192,558.176z M 754.816,340.384c-16.384-16.32-23.808-39.328-20.064-61.888l 45.312-270.432l-232.32,124.992
	c-11.136,6.016-23.424,8.992-35.776,8.992c-12.288,0-24.608-3.008-35.744-8.992l-232.32-124.992l 45.312,270.432
	c 3.776,22.56-3.648,45.568-20.032,61.888l-195.264,194.944l 266.432,39.68c 24.352,3.616, 45.312,18.848, 55.776,40.576L 512,855.968l 115.84-240.416
	c 10.496-21.728, 31.424-36.928, 55.744-40.576l 266.496-39.68L 754.816,340.384z" data-tags="star, favorite" />
<glyph unicode="&#xe00f;" d="M 709.44,684.032c-86.624,17.824-174.56,26.848-261.28,26.848c-86.72,0-174.624-9.024-261.28-26.848
		C 175.68,681.728, 166.528,673.6, 162.912,662.688c-46.144-140.192-46.144-282.336,0-422.528c 3.584-10.88, 12.736-19.008, 23.968-21.312
		C 273.536,201.056, 361.44,192, 448.16,192c 86.688,0, 174.656,9.056, 261.28,26.88c 11.264,2.304, 20.384,10.432, 24,21.312
		c 46.112,140.192, 46.112,282.336,0,422.528C 729.824,673.6, 720.672,681.728, 709.44,684.032z M 703.008,250.176c-169.888-34.88-339.808-34.88-509.664,0
		c-44.192,134.176-44.192,268.32,0,402.528c 169.888,34.912, 339.808,34.912, 509.664,0C 747.2,518.528, 747.2,384.384, 703.008,250.176zM 987.328,757.76c-6.176,26.048-28,45.504-54.56,48.704C 793.248,823.424, 651.744,832, 512.16,832
		C 372.608,832, 231.104,823.424, 91.584,806.496C 65.024,803.264, 43.232,783.84, 37.056,757.76c-48.928-205.536-48.928-413.952,0-619.52
		c 6.176-26.048, 27.968-45.504, 54.528-48.672c 67.232-8.192, 134.912-14.176, 202.592-18.432C 290.528,68.8, 288.16,66.432, 288.16,64c0-17.696, 100.288-32, 224-32
		c 123.712,0, 224,14.304, 224,32c0,2.432-2.368,4.8-6.016,7.136c 67.68,4.256, 135.36,10.24, 202.56,18.432c 26.56,3.2, 48.384,22.624, 54.56,48.672
		C 1036.256,343.808, 1036.256,552.224, 987.328,757.76z M 925.056,153.056c-275.264-33.376-550.528-33.376-825.76,0c-46.816,196.64-46.816,393.28,0,589.888
		c 275.264,33.408, 550.528,33.408, 825.76,0C 971.872,546.336, 971.872,349.696, 925.056,153.056zM 848.192,576c 26.496,0, 48,21.504, 48,48S 874.688,672, 848.192,672s-48-21.504-48-48S 821.696,576, 848.192,576z
		 M 848.192,640c 8.8,0, 16-7.2, 16-16s-7.2-16-16-16s-16,7.2-16,16S 839.36,640, 848.192,640zM 880.192,256 C 888.992,256 896.192,248.864 896.192,240 C 896.192,231.2 888.992,224 880.192,224 L 784.192,224 C 775.328,224 768.192,231.2 768.192,240 C 768.192,248.864 775.328,256 784.192,256 L 880.192,256 ZM 912.192,352 C 920.992,352 928.192,344.864 928.192,336 C 928.192,327.2 920.992,320 912.192,320 L 816.192,320 C 807.328,320 800.192,327.2 800.192,336 C 800.192,344.864 807.328,352 816.192,352 L 912.192,352 ZM 912.192,448 C 920.992,448 928.192,440.832 928.192,432 C 928.192,423.168 920.992,416 912.192,416 L 816.192,416 C 807.328,416 800.192,423.168 800.192,432 C 800.192,440.832 807.328,448 816.192,448 L 912.192,448 ZM 432.16,582.272 C 440.992,582.624 448.16,575.744 448.16,566.912 C 448.16,558.080 440.96,550.656 432.16,550.336 L 312.192,542.112 C 303.456,541.216 295.328,533.344 294.144,524.64 L 288.8,464 C 288.448,455.2 280.96,448 272.224,448 C 263.456,448 256.64,455.2 257.088,464 L 266.848,553.152 C 268.32,561.856 276.672,569.792 285.408,570.784 L 432.16,582.272 Z" data-tags="tv, show, television" />
<glyph unicode="&#xe010;" d="M 1022.88,455.168c-0.32,1.344-0.128,2.784-0.64,4.096c-0.192,0.544-0.672,0.832-0.864,1.344
		c-0.32,0.768-0.256,1.632-0.672,2.368c-92.8,177.632-294.816,304.896-507.936,304.896c-213.152,0-415.136-127.072-508-304.672
		c-0.416-0.736-0.352-1.6-0.672-2.368c-0.224-0.512-0.672-0.8-0.864-1.344c-0.512-1.312-0.32-2.752-0.64-4.096
		c-0.576-2.4-1.12-4.704-1.12-7.168s 0.576-4.736, 1.12-7.168c 0.32-1.344, 0.128-2.784, 0.64-4.096
		c 0.192-0.544, 0.672-0.832, 0.864-1.344c 0.32-0.768, 0.256-1.632, 0.672-2.368c 92.832-177.632, 294.848-304.896, 508-304.896
		c 213.12,0, 415.136,127.072, 507.936,304.672c 0.448,0.736, 0.384,1.6, 0.672,2.368c 0.192,0.512, 0.672,0.8, 0.864,1.344
		c 0.512,1.312, 0.32,2.752, 0.64,4.096C 1023.424,443.264, 1024,445.568, 1024,448S 1023.424,452.768, 1022.88,455.168z M 512.736,192.384
		c-179.68,0-355.584,102.112-443.232,255.84c 88.128,153.92, 263.776,255.68, 443.232,255.68c 179.616,0, 355.552-102.144, 443.2-255.84
		C 867.808,294.112, 692.192,192.384, 512.736,192.384zM 512.736,576.032 C 521.568,576.032 528.672,568.896 528.672,560.032 C 528.672,551.232 521.536,544.064 512.736,544.064 L 512.736,544.032 C 459.808,544.032 416.768,500.992 416.768,448.128 C 416.768,439.296 409.6,432.128 400.8,432.128 C 391.968,432.128 384.8,439.296 384.8,448.128 C 384.8,518.688 441.984,575.872 512.544,576 C 512.608,576 512.672,576.032 512.736,576.032 ZM 512,672c-123.744,0-224-100.288-224-224c0-123.712, 100.288-224, 224-224c 123.68,0, 224,100.32, 224,224C 736,571.744, 635.68,672, 512,672z M 512,256
		c-105.888,0-192,86.112-192,192c0,105.888, 86.112,192, 192,192c 105.888,0, 192-86.112, 192-192C 704,342.112, 617.888,256, 512,256z" data-tags="eye, vision, view" />
<glyph unicode="&#xe011;" d="M 800,960c-65.696,0-117.312-45.12-154.368-114.752l-0.672,0.384C 591.136,740.256, 511.008,672, 423.232,672l-21.216,0 
	L 260.992,672 L 128,672 c-71.776,0-128-70.304-128-160c0-89.76, 56.224-160, 128-160c 35.296-0.128, 63.84-28.672, 63.84-64l0-288 c0-35.36, 28.672-64, 64-64l 128,0 c 35.328,0, 64,28.64, 64,64
	l0,32 c0,32-32,46.304-32,64l0,224 c0,0.736, 0.512,1.248, 0.576,1.984c 0.32,4.576, 1.568,8.8, 3.584,12.64c 0.576,1.056, 1.184,1.888, 1.888,2.816
	c 2.56,3.808, 5.792,6.944, 9.728,9.376c 0.192,0.128, 0.256,0.32, 0.448,0.448c 0.128,0, 0.224,0.128, 0.352,0.128
	c 2.56,1.44, 5.632,1.76, 8.512,2.56c 80.768-8.576, 153.888-73.76, 204.064-171.936l 0.8,0.384C 682.88,108.992, 734.368,64, 800,64
	c 147.072,0, 224,225.376, 224,448S 947.072,960, 800,960z M 640,512c0,33.184, 1.952,65.248, 5.248,96L 736,608 c 35.328,0, 64-43.008, 64-96c0-53.056-28.672-96-64-96l-90.752,0 
	C 641.952,446.752, 640,478.752, 640,512z M 64,512c0,52.992, 28.672,96, 64,96l 132.992,0 L 288,608 l 64.448,0 C 332.608,584.672, 320,550.816, 320,512
	c0-38.88, 12.608-72.736, 32.448-96L 288,416 L 128,416 C 92.672,416, 64,458.944, 64,512z M 383.84,0l-128,0 l0,288 c0,23.328-6.24,45.12-17.184,64l 22.336,0 l0-0.384 l 96.256,0 
	c-3.424-9.952-5.408-20.512-5.408-31.616l0-224 c0-30.816, 17.216-51.328, 27.488-63.552c 1.408-1.696, 3.072-3.424, 4.512-5.312L 383.84,0 z M 423.232,415.616
	L 416,415.616 L 416,416 c-35.328,0-64,42.944-64,96c0,52.992, 28.672,96, 64,96l 7.232,0 c 60.352,0, 116.864,23.744, 166.592,64.576C 580.672,621.056, 576,566.496, 576,512
	c0-54.688, 4.672-109.44, 13.888-160.992C 540.128,391.872, 483.584,415.616, 423.232,415.616z M 800,128c-64.576,0-120,91.872-145.312,224L 736,352 
	c 71.744,0, 128,70.24, 128,160c0,89.696-56.256,160-128,160l-81.312,0 C 680,804.064, 735.424,896, 800,896c 88.384,0, 160-171.936, 160-384S 888.384,128, 800,128z" data-tags="megaphone, bullhorn, announcement, advertisement" />
<glyph unicode="&#xe012;" d="M 1024,704c0,44.992-30.624,83.456-74.432,93.568L 533.152,893.664C 526.176,895.232, 519.072,896, 512,896
		c-7.072,0-14.176-0.768-21.6-2.432l-415.968-96C 30.592,787.456,0,748.992,0,704s 30.624-83.456, 74.4-93.568L 160,590.688L 160,320 c0-84.928, 97.216-160, 352-160
		s 352,75.072, 352,160l0,270.688 l 85.568,19.744C 993.376,620.544, 1024,659.008, 1024,704z M 800,320c0-35.36-96-96-288-96c-192,0-288,60.64-288,96l0,255.904 l 266.816-61.568
		C 497.792,512.768, 504.928,512, 512,512c 7.072,0, 14.208,0.768, 21.568,2.432L 800,575.904L 800,320 z M 519.2,576.8C 516.8,576.288, 514.4,576, 512,576
		s-4.832,0.288-7.2,0.8l-416,96C 74.272,676.16, 64,689.088, 64,704s 10.272,27.84, 24.8,31.2l 416,96C 507.168,831.712, 509.568,832, 512,832
		s 4.832-0.288, 7.2-0.8l 416-96C 949.696,731.84, 960,718.912, 960,704s-10.304-27.84-24.8-31.2L 519.2,576.8zM 928,544 C 928,561.696 942.304,576 960,576 C 977.664,576 992,561.696 992,544 L 992,256 C 992,238.304 977.664,224 960,224 C 942.304,224 928,238.304 928,256 L 928,544 ZM 960,192 C 995.328,192 1024,99.328 1024,64 C 1024,28.672 995.328,0 960,0 C 924.64,0 896,28.672 896,64 C 896,99.328 924.64,192 960,192 Z" data-tags="study, graduation, hat, college" />
<glyph unicode="&#xe013;" d="M 512,736 C 520.832,736 528,728.832 528,720 C 528,711.168 520.8,704 512,704 C 341.536,704 192,614.272 192,512 C 192,503.168 184.832,496 176,496 C 167.168,496 160,503.168 160,512 C 160,633.408 321.184,736 512,736 ZM 512,896C 229.216,896,0,724.064,0,512c0-132.064, 88.928-248.512, 224.256-317.632
		C 224.256,193.504, 224,192.928, 224,192c0-57.376-42.848-119.136-61.696-151.552c 0.032,0, 0.064,0, 0.064,0C 160.864,36.928, 160,33.056, 160,28.992
		C 160,12.992, 172.96,0, 188.992,0C 192,0, 197.28,0.8, 197.152,0.448c 100,16.384, 194.208,108.256, 216.096,134.88C 445.216,130.624, 478.176,128, 512,128
		c 282.72,0, 512,171.936, 512,384C 1024,724.064, 794.752,896, 512,896z M 512,192c-29.344,0-59.456,2.24-89.472,6.624c-3.104,0.512-6.208,0.672-9.28,0.672
		c-19.008,0-37.216-8.448-49.472-23.36c-13.696-16.672-52.672-53.888-98.72-81.248c 12.48,28.64, 22.24,60.736, 22.912,93.824
		c 0.192,2.048, 0.288,4.128, 0.288,5.888c0,24.064-13.472,46.048-34.88,56.992C 134.784,311.936, 64,409.376, 64,512C 64,688.448, 264.96,832, 512,832
		c 246.976,0, 448-143.552, 448-320C 960,335.552, 759.008,192, 512,192z" data-tags="bubble, comment, chat, talk" />
<glyph unicode="&#xe014;" d="M 863.936,511.904 C 863.936,670.688 734.752,799.904 575.936,799.872 L 575.936,800 C 567.136,800.032 560,807.2 560,816 C 560,824.832 567.136,832 576,832 C 576.32,832 576.576,831.872 576.8,831.808 C 753.056,831.392 895.744,688.544 895.936,512.256 C 895.936,512.16 896,512.096 896,512 C 896,503.168 888.8,496.032 880,496.032 C 871.2,496.032 864.064,503.136 864,511.904 L 863.936,511.904 ZM 291.872,931.904C 273.536,950.272, 248.96,960, 223.968,960C 211.616,960, 199.168,957.632, 187.296,952.704C 151.392,937.856, 128,902.848, 128,864
		L 127.968,423.776l-99.84-99.904c-37.504-37.44-37.504-98.24,0-135.744l 224-224C 270.88-54.624, 295.424-64, 320-64s 49.12,9.376, 67.872,28.128L 487.744,64
		l 440.192,0 c 38.88,0, 73.888,23.36, 88.672,59.264c 14.88,35.872, 6.688,77.184-20.8,104.64L 291.872,931.904z M 442.496,109.248l-99.872-99.872
		C 334.464,1.248, 324.928,0, 320,0s-14.464,1.248-22.624,9.376l-224,224C 65.216,241.568, 64,251.072, 64,256s 1.216,14.496, 9.376,22.624l 99.84,99.872
		c 0.288,0.32, 0.384,0.672, 0.672,0.992l 269.6-269.632C 443.2,109.632, 442.784,109.568, 442.496,109.248z M 487.744,128
		c-4.96,0-9.568-1.76-14.304-2.816L 189.12,409.504c 1.088,4.736, 2.848,9.344, 2.848,14.272L 192,809.248L 873.184,128L 487.744,128 z M 957.504,147.744
		C 952.576,135.744, 940.928,128, 927.936,128l-9.504,0 L 192,854.496L 192,864 c0,12.992, 7.744,24.608, 19.744,29.568C 215.68,895.2, 219.776,896, 223.968,896
		c 8.576,0, 16.608-3.328, 22.624-9.344l 703.968-704.032C 959.744,173.44, 962.496,159.744, 957.504,147.744zM 575.936,896 C 558.304,896.032 544,910.368 544,928 C 544,945.696 558.304,960 576,960 C 576.32,960 576.576,959.872 576.8,959.84 C 823.744,959.392 1023.744,759.232 1023.936,512.256 C 1023.936,512.16 1024,512.096 1024,512 C 1024,494.304 1009.696,480 992,480 C 974.368,480 960.064,494.272 960,511.872 L 959.936,511.872 C 959.936,723.616 787.68,895.872 575.936,895.872 L 575.936,896 Z" data-tags="sound, speaker, volume" />
<glyph unicode="&#xe015;" d="M 960,768l-28.384,0 c-16.8,0-32.928-6.624-44.928-18.432L 800,664.064L 800,704 c0,53.024-43.008,96-96,96L 96,800 
	C 43.072,800,0,756.96,0,704l0-223.104 L0,192 c0-52.992, 42.976-96, 96-96l 608,0 c 52.992,0, 96,43.008, 96,96l0,39.072 l 86.688-85.504c 12-11.808, 28.128-18.432, 44.928-18.432
	L 960,127.136 c 35.328,0, 64,28.64, 64,64L 1024,704 C 1024,739.36, 995.328,768, 960,768z M 96,160c-17.664,0-32,14.368-32,32L 64,704 c0,17.696, 14.304,32, 32,32l 608,0 c 17.632,0, 32-14.336, 32-32l0-512 
	c0-17.632-14.368-32-32-32L 96,160 z M 960,191.136l-28.384,0 L 928,191.136 l-128,128L 800,320 l-32,32l0,192 l 160,160l 3.616,0 L 960,704 L 960,191.136 z" data-tags="video, camera, movie" />
<glyph unicode="&#xe016;" d="M 1021.568,369.44L 893.504,849.632C 885.76,876.928, 860.448,896, 832,896L 512,896 L 192,896 C 163.52,896, 138.24,876.928, 130.496,849.632L 2.432,369.44
		C 0.8,363.616,0,357.76,0,352l0-224 c0-70.688, 57.312-128, 128-128l 768,0 c 70.688,0, 128,57.312, 128,128l0,224 C 1024,357.76, 1023.2,363.616, 1021.568,369.44z M 960,128
		c0-35.264-28.736-64-64-64L 128,64 c-35.296,0-64,28.736-64,64l0,224 L 192.032,832.032l 639.904,0 L 960,352L 960,128 zM 759.744,768L 264.256,768 c-14.496,0-27.2-9.76-30.944-23.776l-110.24-384c-2.528-9.632-0.512-19.872, 5.568-27.744
		S 144.064,320, 153.984,320l 92.992,0 l 36.512,0 l 16.672,0 l 46.304-92.64C 357.344,205.696, 379.488,192, 403.744,192l 216.512,0 c 24.256,0, 46.368,13.696, 57.248,35.36
		L 723.808,320l 16.672,0 l 36.512,0 l 92.992,0 c 9.952,0, 19.328,4.64, 25.376,12.512s 8.064,18.112, 5.568,27.744l-110.24,384C 786.944,758.272, 774.24,768, 759.744,768z
		 M 776.992,384l-53.184,0 c-24.384,0-46.304-13.504-57.248-35.36L 620.256,256l-216.512,0 l-46.304,92.64C 346.496,370.496, 324.576,384, 300.192,384L 247.008,384 L 170.688,384 
		L 264.256,736l 495.488,0 l 93.568-352L 776.992,384 z" data-tags="stack, drawer, inbox, box" />
<glyph unicode="&#xe017;" d="M 661.824,840.576C 646.688,855.68, 626.624,864, 605.248,864s-41.44-8.32-56.64-23.456l-45.12-45.184
		C 488.352,780.256, 480,760.16, 480,738.752c0-15.072, 4.128-29.504, 11.872-42.016L 57.408,522.688c-29.056-12.768-49.888-38.976-55.744-70.048
		c-5.92-31.264, 4-63.328, 26.688-85.984l 407.040-402.56c 17.536-17.536, 40.832-27.488, 65.44-28.064C 501.408-64, 502.752-64, 503.328-64
		c 6.464,0, 13.024,0.672, 19.52,1.984c 31.808,6.592, 57.856,28.576, 69.664,58.496l 170.944,428.032c 12.864-8.48, 28-13.024, 43.744-13.024
		c 21.44,0, 41.504,8.352, 56.576,23.456L 908.8,480c 15.264,15.168, 23.616,35.296, 23.616,56.736s-8.384,41.6-23.424,56.576L 661.824,840.576z
		 M 533.088,20.256c-3.968-10.016-12.704-17.408-23.264-19.584c-2.432-0.512-4.896-0.704-7.328-0.672c-8.128,0.192-15.968,3.456-21.824,9.344
		L 73.376,412.16c-7.488,7.456-10.784,18.144-8.8,28.576c 1.952,10.368, 8.928,19.136, 18.624,23.36l 198.944,79.68
		c 134.048-44.576, 268.128-1.632, 402.24-144.704L 533.088,20.256z M 863.744,525.44l-45.248-45.216c-6.24-6.272-16.384-6.272-22.624,0l-56.576,56.544
		l-45.824-114.848l 3.808,9.696c-96.32,96.16-194.208,108.288-282.528,119.136c-28.384,3.488-55.904,7.136-82.944,12.96l 271.712,108.832l-54.88,54.88
		c-6.24,6.24-6.24,16.384,0,22.624l 45.248,45.28c 6.24,6.24, 16.384,6.24, 22.624,0l 247.2-247.264
		C 870.048,541.824, 870.048,531.68, 863.744,525.44zM 528,288c 44.096,0, 80,35.872, 80,80S 572.128,448, 528,448c-44.128,0-80-35.872-80-80S 483.904,288, 528,288z
		 M 528,416c 26.496,0, 48-21.504, 48-48S 554.496,320, 528,320c-26.528,0-48,21.504-48,48S 501.472,416, 528,416zM 944,960C 899.872,960, 864,924.128, 864,880S 899.872,800, 944,800S 1024,835.872, 1024,880S 988.128,960, 944,960z M 944,832
		C 917.504,832, 896,853.504, 896,880S 917.504,928, 944,928S 992,906.496, 992,880S 970.496,832, 944,832zM 256,416c0-35.296, 28.704-64, 64-64s 64,28.704, 64,64s-28.704,64-64,64S 256,451.296, 256,416z M 320,448c 17.664,0, 32-14.304, 32-32
		s-14.336-32-32-32s-32,14.304-32,32S 302.336,448, 320,448zM 384,224A32,32 900 1 0 448,224A32,32 900 1 0 384,224zM 896,704A32,32 900 1 0 960,704A32,32 900 1 0 896,704z" data-tags="lab, beta, experiment, test" />
<glyph unicode="&#xe018;" d="M 944,288l-86.112,0 c-1.44,7.648-3.2,15.136-5.12,22.592l 153.568,76.768c 15.808,7.904, 22.176,27.136, 14.304,42.944
		c-7.936,15.808-27.072,22.144-42.944,14.304l-146.496-73.216C 775.328,491.968, 653.44,576, 512,576c-172.224,0-315.68-124.416-345.888-288L 80,288 
		C 35.904,288,0,252.128,0,208c0-15.68, 5.76-30.816, 16.16-42.528L 128,39.648L 128,16 C 128-28.128, 163.904-64, 208-64l 608,0 c 44.128,0, 80,35.872, 80,80
		l0,23.648 l 111.808,125.824C 1018.24,177.184, 1024,192.32, 1024,208C 1024,252.128, 988.128,288, 944,288z M 825.568,288l-17.984,0 l 15.936,8
		C 824.128,293.312, 824.992,290.72, 825.568,288z M 512,544c 128.928,0, 240-76.8, 290.624-186.912l-28.512-14.24C 728.8,442.528, 628.64,512, 512,512
		c-137.024,0-251.488-95.776-280.64-224L 198.464,288 C 228.192,433.888, 357.472,544, 512,544z M 658.432,288c-24.736,56.416-80.992,96-146.432,96s-121.664-39.584-146.432-96
		L 331.2,288 c 26.432,74.432, 97.376,128, 180.8,128c 78.88,0, 146.816-47.872, 176.256-116.064L 664.448,288L 658.432,288 z M 512,320c-28.256,0-53.44-12.512-71.040-32l-39.168,0 
		c 22.208,38.048, 63.040,64, 110.208,64c 47.136,0, 88-25.952, 110.176-64l-39.2,0 C 565.44,307.488, 540.256,320, 512,320z M 512,448
		c-101.28,0-186.944-67.584-214.56-160L 264.416,288 c 28.544,110.208, 128.544,192, 247.584,192c 103.872,0, 193.376-62.336, 233.44-151.488l-28.576-14.272
		C 682.048,392.864, 603.36,448, 512,448z M 832,64l0-48 c0-8.832-7.2-16-16-16l-608,0 C 199.168,0, 192,7.168, 192,16L 192,64 l-128,144
		C 64,216.832, 71.168,224, 80,224L 160,224 l 32,0 l 32,0 l 32,0 l 32,0 l 32,0 l 32,0 l 32,0 l 32,0 l 192,0 l 32,0 l 32,0 l 32,0 l 32,0 l 32,0 l 32,0 l 32,0 l 32,0 l 80,0 c 8.8,0, 16-7.168, 16-16L 832,64zM 255.264,585.216 C 255.040,585.664 254.88,586.080 254.688,586.56 C 238.080,626.656 254.592,665.984 269.504,701.472 C 283.616,735.136 296.128,764.96 283.2,794.048 C 283.136,794.176 283.104,794.304 283.040,794.432 C 283.008,794.528 282.976,794.624 282.944,794.72 C 282.912,794.784 282.912,794.848 282.912,794.912 C 282.272,796.608 281.888,798.4 281.888,800.32 C 281.888,808.96 288.896,816 297.568,816 C 304.224,816 309.888,811.84 312.16,805.984 C 330.016,765.312 313.792,725.312 298.656,689.28 C 284.64,655.936 273.248,624.96 285.248,596.736 C 285.312,596.512 285.312,596.32 285.248,596.096 C 285.6,594.816 285.824,593.472 285.824,592.096 C 285.824,583.232 278.624,576 269.76,576 C 263.552,576 258.24,579.52 255.584,584.64 C 255.552,584.64 255.52,584.64 255.52,584.64 C 255.424,584.832 255.36,585.024 255.264,585.216 ZM 644.928,589.888 C 644.736,590.304 644.576,590.752 644.416,591.168 C 627.808,631.264 644.288,670.624 659.168,706.112 C 673.312,739.776 685.792,769.6 672.864,798.688 C 672.864,798.816 672.8,798.944 672.736,799.072 C 672.672,799.168 672.672,799.264 672.608,799.36 C 672.608,799.424 672.608,799.488 672.608,799.552 C 672,801.248 671.552,803.040 671.552,804.96 C 671.552,813.6 678.592,820.64 687.232,820.64 C 693.92,820.64 699.552,816.512 701.856,810.624 C 719.712,769.952 703.488,729.952 688.352,693.92 C 674.336,660.576 662.976,629.6 674.912,601.376 C 675.040,601.152 675.040,600.96 674.976,600.736 C 675.296,599.456 675.552,598.112 675.552,596.736 C 675.552,587.872 668.288,580.64 659.424,580.64 C 653.248,580.64 647.936,584.192 645.248,589.312 L 645.184,589.312 C 645.12,589.504 645.056,589.696 644.928,589.888 ZM 480.608,729.216 C 480.384,729.664 480.224,730.080 480,730.528 C 463.36,770.624 479.872,809.984 494.784,845.472 C 508.896,879.136 521.408,908.96 508.48,938.048 C 508.448,938.176 508.384,938.304 508.352,938.432 C 508.32,938.528 508.288,938.624 508.256,938.72 C 508.224,938.784 508.224,938.848 508.224,938.912 C 507.584,940.608 507.2,942.4 507.2,944.32 C 507.2,952.96 514.24,960 522.88,960 C 529.568,960 535.2,955.84 537.504,949.952 C 555.36,909.28 539.136,869.28 524,833.248 C 509.984,799.904 498.592,768.928 510.592,740.704 C 510.656,740.48 510.656,740.288 510.592,740.064 C 510.944,738.784 511.168,737.44 511.168,736.064 C 511.168,727.2 503.968,719.968 495.104,719.968 C 488.928,719.968 483.616,723.52 480.928,728.64 C 480.896,728.64 480.864,728.64 480.864,728.64 C 480.768,728.832 480.704,729.024 480.608,729.216 Z" data-tags="food, lunch, soup" />
<glyph unicode="&#xe019;" d="M 899.552,799.296l-38.88,116.96C 852,942.4, 827.552,960, 800,960L 224,960 C 196.416,960, 172,942.4, 163.264,916.256
	L 124.064,799.232C 90.656,797.088, 64,769.952, 64,736l0-96 c0-35.328, 28.672-64, 64-64l 33.088,0 c0-2.4-0.96-4.672-0.672-7.072l 64-576C 228-39.424, 255.36-64, 288-64
	l 448,0 c 32.64,0, 60,24.576, 63.552,56.928l 64,576c 0.32,2.4-0.672,4.672-0.672,7.072L 896,576 c 35.328,0, 64,28.672, 64,64L 960,736 
	C 960,770.080, 933.12,797.344, 899.552,799.296z M 224,896l 576,0 l 32-96L 192,800 L 224,896z M 288,0l-10.656,96l 469.312,0 L 736,0L 288,0 z M 750.176,128L 273.76,128 L 238.208,448l 547.552,0 
	L 750.176,128z M 789.312,480L 234.656,480 L 224,576l 576,0 L 789.312,480z M 896,640L 128,640 L 128,736 l 768,0 L 896,640 z" data-tags="cup, drink" />
<glyph unicode="&#xe01a;" d="M 959.36,741.792c-3.072,50.24-44.384,90.112-95.36,90.112l-96,0 l0,32 L 768,863.968 
		c0,53.024-43.008,96-96,96L 352,959.968 c-53.024,0-96-42.976-96-96l0-0.032 l0-32 L 160,831.936 c-51.040,0-92.32-39.872-95.392-90.112L 64,741.824 l0-37.856 l0-32 c0-35.328, 28.672-64, 64-64l0,0l0-544 
		c0-70.688, 57.312-128, 128-128l 512,0 c 70.688,0, 128,57.312, 128,128l0,544 l0,0c 35.328,0, 64,28.672, 64,64l0,32 L 960,741.792 L 959.36,741.792 z M 320,863.936c0,17.696, 14.304,32, 32,32l 320,0 
		c 17.696,0, 32-14.304, 32-32l0-32 L 320,831.936 L 320,863.936 z M 832,63.936c0-35.264-28.736-64-64-64L 256-0.064 c-35.296,0-64,28.736-64,64l0,544 l 640,0 L 832,63.936 z M 896,703.968l0-32 L 128,671.968 l0,32 L 128,735.936 
		c0,17.696, 14.304,32, 32,32l 704,0 c 17.696,0, 32-14.304, 32-32L 896,703.968 zM 288,63.808l 64,0 c 17.696,0, 32,14.304, 32,32l0,416 c0,17.696-14.304,32-32,32L 288,543.808 
		c-17.696,0-32-14.304-32-32l0-416 C 256,78.112, 270.304,63.808, 288,63.808z M 288,511.84l 64,0 l0-416 L 288,95.84 L 288,511.84 zM 480,63.808l 64,0 c 17.696,0, 32,14.304, 32,32l0,416 c0,17.696-14.304,32-32,32l-64,0 
		c-17.696,0-32-14.304-32-32l0-416 C 448,78.112, 462.304,63.808, 480,63.808z M 480,511.84l 64,0 l0-416 l-64,0 L 480,511.84 zM 672,63.808l 64,0 c 17.696,0, 32,14.304, 32,32l0,416 c0,17.696-14.304,32-32,32l-64,0 
		c-17.696,0-32-14.304-32-32l0-416 C 640,78.112, 654.304,63.808, 672,63.808z M 672,511.84l 64,0 l0-416 l-64,0 L 672,511.84 z" data-tags="trash, remove, delete" />
<glyph unicode="&#xe01b;" d="M 995.52,53.248c-6.432,4.256-123.136,80.8-296.736,118.368c 63.68,80.672, 104.576,189.184, 121.952,261.408
	c 24.128,100.096, 14.752,295.936-81.376,417.984C 683.168,922.336, 604.544,960, 512,960c-92.544,0-171.168-37.696-227.328-108.992
	C 188.544,728.992, 179.2,533.152, 203.296,433.056c 17.376-72.224, 58.24-180.736, 121.952-261.408c-173.6-37.568-290.304-114.112-296.704-118.368
	c-23.456-15.616-33.952-44.8-25.76-71.744C 10.912-45.504, 35.84-64, 64-64l 896,0 c 28.192,0, 53.056,18.496, 61.248,45.504
	C 1029.472,8.448, 1018.976,37.632, 995.52,53.248z M 648.544,211.264l-10.432-13.248c-76.32-87.68-175.84-87.68-252.128,0l-10.464,13.248
	c-89.12,112.928-133.344,262.304-114.304,404.8C 278.656,752.992, 357.12,896, 512,896c 154.88,0, 233.376-143.040, 250.816-279.968
	C 781.792,473.472, 737.728,324.256, 648.544,211.264z M 64,0c 4.416,2.944, 112.832,74.048, 274.752,109.056l 79.488,17.184C 446.624,107.616, 477.76,96, 512,96
	c 34.272,0, 65.376,11.616, 93.76,30.24l 79.488-17.184c 160.64-34.752, 268.672-105.056, 274.752-109.056L 64,0 z" data-tags="user, profile, avatar" />
<glyph unicode="&#xe01c;" d="M 704.128,960c-176.736,0-320-143.296-320-320c0-41.12, 8.608-80.032, 22.816-116.128L 18.176,135.136
		C 6.944,123.872, 0,113.184, 0,96l0-96 c0-34.24, 29.728-64, 64-64l 96,0 c 17.152,0, 28,6.88, 39.232,18.048L 245.152,0l 74.976,0 c 35.328,0, 64,28.672, 64,64l0,64 l 64,0 
		c 35.328,0, 64,28.672, 64,64l0,75.008 l 75.808,75.872C 624.064,328.64, 662.944,320, 704.128,320c 176.672,0, 320,143.296, 320,320S 880.8,960, 704.128,960z M 704.128,384
		c-47.36,0-91.264,13.76-129.312,36.224l-11.008-10.976l-36-36l-60.96-60.992c-12-12-18.752-28.256-18.752-45.248L 448.096,192 l-64,0 
		c-35.328,0-64-28.64-64-64l0-64 L 245.152,64 c-16.96,0-33.248-6.752-45.248-18.752l-45.376-45.376L 64.096,0L 64,91.2l 373.28,372.608
		c0,0,0-0.032, 0.032-0.064l 47.008,47.008c-22.464,38.048-36.224,81.92-36.224,129.28c0,141.376, 114.656,256, 256,256s 256-114.624, 256-256S 845.504,384, 704.128,384zM 890.24,696.352c-35.872,49.984-79.552,93.6-129.76,129.728C 752.32,832, 741.76,833.472, 732.256,830.144
		c-44.448-15.648-74.88-46.048-90.432-90.496c-1.184-3.328-1.76-6.784-1.76-10.208c0-6.368, 1.984-12.672, 5.824-18.016
		c 36-50.048, 79.616-93.696, 129.696-129.696c 8.192-5.888, 18.688-7.392, 28.192-4.096c 44.512,15.552, 74.944,46.016, 90.56,90.496
		c 1.184,3.328, 1.76,6.784, 1.76,10.208C 896.064,684.704, 894.048,691.008, 890.24,696.352z M 794.24,607.68C 746.944,641.696, 705.76,682.88, 672,729.056
		c 12.384,35.296, 35.552,58.464, 69.824,71.072c 47.328-34.080, 88.448-75.168, 122.112-121.952C 851.424,643.136, 828.32,620.096, 794.24,607.68z" data-tags="key, password" />
<glyph unicode="&#xe01d;" d="M 704,672c-1.984-85.6-66.24-157.888-66.24-157.888C 637.76,673.344, 512,800, 512,800s-1.696-94.784-65.376-190.336
			C 382.944,832.608, 191.84,960, 191.84,960C 287.392,609.664, 160,482.24, 160,227.456C 160,77.984, 286.528-64, 480-64c 286.624,0, 342.048,105.216, 371.68,223.776
			C 892.512,323.008, 831.36,512.768, 704,672z M 789.632,175.328C 769.056,93.12, 745.824,0, 480,0c-160.256,0-256,115.648-256,227.456
			c0,85.632, 15.616,155.936, 32.128,230.368c 20.992,94.368, 42.496,190.976, 33.184,318.752c 98.688-136.608, 133.824-317.6, 133.824-317.6
			s 91.872,128.992, 116.576,188.896C 558.624,609.376, 576,480, 576,352c0,0, 84.992,70.016, 148.736,175.296C 791.872,406.912, 816.064,281.056, 789.632,175.328zM 717.824,422.56 L 723.776,389.44 C 737.088,315.264 729.632,227.584 704.832,166.016 C 702.336,159.776 696.32,156 690.016,156 C 688,156 685.952,156.384 684,157.152 C 675.808,160.448 671.808,169.76 675.136,177.952 C 693.824,224.32 701.696,289.6 696.704,349.248 C 664.576,313.344 624.096,275.936 537.6,234.848 L 521.408,227.2 L 515.584,244.096 C 504,277.696 492.32,311.648 487.264,358.976 C 469.952,331.68 454.144,307.36 427.584,271.2 L 411.328,249.056 L 400.064,274.144 C 372.512,335.744 351.52,383.84 334.88,426.144 C 319.488,376.704 308,319.52 308,204.032 C 308,195.2 300.8,188.032 292,188.032 C 283.136,188.032 276,195.2 276,204.032 C 276,354.72 296,412.768 317.12,474.24 L 333.76,522.56 L 349.088,479.36 C 365.568,432.928 387.264,381.76 417.952,312.576 C 438.176,341.152 451.744,362.656 468.128,388.608 L 516.704,464.704 L 516.704,410.016 C 516.704,348.448 527.776,308.224 539.968,271.68 C 625.056,314.496 656.928,351.744 690.624,391.040 L 717.824,422.56 Z" data-tags="fire, danger, flame, hot" />
<glyph unicode="&#xe01e;" d="M 939.616,811.616 C 1052.128,699.168 1052.128,516.8 939.616,404.352 L 588.672,53.376 C 576.16,40.832 555.936,40.832 543.424,53.376 C 530.848,65.888 530.848,86.080 543.424,98.624 L 889.856,445.088 C 977.344,532.576 977.344,674.336 889.792,761.856 C 802.432,849.344 660.544,849.344 573.056,761.856 L 110.752,304.992 C 48.256,242.528 48.256,141.216 110.752,78.752 C 173.248,16.256 274.496,16.256 336.992,78.752 L 803.872,540.096 C 841.312,577.536 841.312,638.432 803.872,675.872 C 766.432,713.28 705.568,713.28 668.128,675.872 L 317.12,324.864 C 304.608,312.352 284.384,312.352 271.872,324.864 C 259.36,337.408 259.36,357.6 271.872,370.144 L 622.848,721.12 C 685.28,783.584 786.592,783.584 849.088,721.12 C 911.584,658.624 911.584,557.344 849.088,494.848 L 382.208,33.472 C 294.912-53.856 152.8-53.856 65.472,33.472 C -21.856,120.8 -21.856,262.944 65.472,350.272 L 532.352,811.616 C 644.8,924.128 827.168,924.128 939.616,811.616 Z" data-tags="clip, paperclip, attachment" />
<glyph unicode="&#xe01f;" d="M 896,800L 128,800 C 57.312,800,0,742.656,0,672l0-416 c0-70.688, 57.312-128, 128-128l 768,0 c 70.688,0, 128,57.312, 128,128L 1024,672 
	C 1024,742.656, 966.688,800, 896,800z M 64,632l 223.968-168L 64,296L 64,632 z M 960,256c0-35.328-28.736-64-64-64L 128,192 c-35.296,0-64,28.672-64,64l 250.624,188
	l 139.776-104.864c 17.056-12.736, 37.312-19.2, 57.6-19.2c 20.256,0, 40.512,6.432, 57.568,19.2l 139.808,104.864L 960,256L 960,256z M 960,296l-224,168l 224,168
	L 960,296 z M 550.368,364.736c-11.168-8.384-24.416-12.8-38.368-12.8c-13.952,0-27.232,4.448-38.4,12.8L 341.28,464l-26.656,20L 64,671.968L 64,672 
	c0,35.296, 28.704,64, 64,64l 768,0 c 35.264,0, 64-28.704, 64-64L 550.368,364.736z" data-tags="mail, email, letter, envelope, contact" />
<glyph unicode="&#xe020;" d="M 640,959.84c-212.064,0-384-171.936-384-384c0-64.832, 16.224-125.856, 44.64-179.456l-267.008-266.944l 0.224-0.192
		C 12.992,108.736,0,80.32,0,48.736c0-62.368, 50.56-112.928, 112.928-112.928c 31.52,0, 59.968,12.992, 80.48,33.888l-0.064,0.064l 266.912,266.88
		c 53.632-28.512, 114.752-44.8, 179.744-44.8c 212.064,0, 384,171.936, 384,384C 1024,787.904, 852.064,959.84, 640,959.84z M 153.44,9.696
		c-10.304-10.688-24.576-17.376-40.512-17.376c-31.2,0-56.48,25.248-56.48,56.448c0,15.936, 6.72,30.176, 17.376,40.512l-0.288,0.256l 258.112,258.112
		c 22.56-30.432, 49.44-57.312, 79.808-79.936L 153.44,9.696z M 640,255.808c-176.704,0-320,143.328-320,320c0,176.704, 143.296,320, 320,320
		c 176.672,0, 320-143.296, 320-320C 960,399.136, 816.672,255.808, 640,255.808zM 640,799.84 C 648.8,799.84 656,792.672 656,783.84 C 656,775.008 648.8,767.84 640,767.84 C 533.952,767.84 448,681.856 448,575.84 C 448,567.008 440.832,559.84 432,559.84 C 423.168,559.84 416,567.008 416,575.84 C 416,699.552 516.256,799.84 640,799.84 Z" data-tags="search, magnifier, lookup, find" />
<glyph unicode="&#xe021;" d="M 972.512,554.24l-98.048,19.648c-4.928,14.176-10.752,27.936-17.184,41.248l 55.552,83.328
		c 16.928,25.376, 13.568,59.2-8,80.736l-61.568,61.568c-12.384,12.384-28.736,18.752-45.312,18.752c-12.256,0-24.64-3.52-35.424-10.752
		l-83.328-55.52c-13.376,6.464-27.136,12.224-41.312,17.152L 618.24,908.48c-5.952,29.952-32.256,51.456-62.752,51.456l-87.040,0 
		c-30.496,0-56.768-21.536-62.752-51.456l-19.648-98.080c-14.176-4.928-27.936-10.72-41.248-17.152L 261.504,848.768
		C 250.656,856, 238.304,859.52, 226.016,859.52c-16.544,0-32.896-6.368-45.28-18.752L 119.2,779.2c-21.568-21.568-24.928-55.36-8-80.736l 55.52-83.328
		c-6.464-13.344-12.224-27.104-17.152-41.28L 51.456,554.24C 21.536,548.256,0,521.984,0,491.488l0-87.040 c0-30.496, 21.536-56.8, 51.456-62.752
		l 98.080-19.68c 4.928-14.176, 10.72-27.936, 17.152-41.248L 111.2,197.44c-16.928-25.376-13.568-59.2, 8-80.736l 61.568-61.568
		c 12.384-12.384, 28.736-18.752, 45.28-18.752c 12.288,0, 24.672,3.552, 35.456,10.752l 83.328,55.552c 13.344-6.496, 27.104-12.256, 41.28-17.184
		l 19.616-98.048c 5.984-29.952, 32.256-51.488, 62.752-51.488l 87.040,0 c 30.496,0, 56.8,21.568, 62.752,51.488l 19.68,98.048
		c 14.176,4.928, 27.936,10.752, 41.248,17.184l 83.328-55.552c 10.816-7.2, 23.2-10.752, 35.424-10.752c 16.576,0, 32.928,6.368, 45.312,18.752
		l 61.568,61.568c 21.568,21.568, 24.928,55.36, 8,80.736l-55.552,83.328c 6.496,13.376, 12.256,27.136, 17.184,41.312l 98.048,19.616
		C 1002.432,347.616, 1024,373.952, 1024,404.448l0,87.040 C 1024,521.984, 1002.432,548.256, 972.512,554.24z M 861.888,384.8
		c-22.24-4.448-40.448-20.32-47.872-41.76c-4.128-11.808-8.928-23.264-14.304-34.368c-9.952-20.448-8.256-44.576, 4.32-63.424l 55.552-83.328
		l-61.568-61.568l-83.328,55.552c-10.688,7.136-23.072,10.752-35.488,10.752c-9.504,0-19.072-2.112-27.872-6.368
		c-11.136-5.376-22.56-10.24-34.432-14.368c-21.376-7.424-37.248-25.632-41.696-47.872l-19.68-98.112l-87.040,0 l-19.616,98.112
		c-4.448,22.24-20.32,40.448-41.728,47.872c-11.808,4.128-23.296,8.928-34.4,14.304c-8.832,4.32-18.368,6.432-27.904,6.432
		c-12.448,0-24.8-3.616-35.488-10.752l-83.328-55.552l-61.568,61.568l 55.52,83.328c 12.576,18.88, 14.208,43.008, 4.384,63.36
		c-5.376,11.136-10.208,22.56-14.336,34.432c-7.424,21.376-25.664,37.248-47.872,41.696l-98.080,19.68L 64,491.488l 98.112,19.616
		c 22.208,4.448, 40.448,20.32, 47.872,41.728c 4.128,11.808, 8.896,23.296, 14.304,34.4c 9.92,20.416, 8.256,44.544-4.352,63.392L 164.448,733.952
		L 225.984,795.52l 83.328-55.52C 320,732.864, 332.384,729.248, 344.8,729.248c 9.504,0, 19.040,2.112, 27.872,6.368c 11.104,5.376, 22.56,10.208, 34.4,14.336
		c 21.408,7.424, 37.28,25.664, 41.728,47.872l 19.648,98.080l 87.040,0.032l 19.616-98.112c 4.448-22.208, 20.32-40.448, 41.76-47.872
		c 11.808-4.128, 23.264-8.896, 34.368-14.304c 8.864-4.288, 18.368-6.4, 27.936-6.4c 12.448,0, 24.8,3.616, 35.488,10.752l 83.328,55.52l 61.568-61.568
		l-55.552-83.328c-12.576-18.88-14.176-42.976-4.384-63.36c 5.376-11.104, 10.24-22.56, 14.368-34.4c 7.424-21.408, 25.632-37.28, 47.872-41.728
		l 98.048-19.648L 960,404.448L 861.888,384.8zM 512,671.968c-123.68,0-224-100.32-224-224c0-123.712, 100.32-224, 224-224s 224,100.32, 224,224C 736,571.648, 635.68,671.968, 512,671.968z
		 M 512,251.936c-108.224,0-196,87.808-196,196c0,108.224, 87.776,196, 196,196c 108.192,0, 196-87.776, 196-196
		C 708,339.744, 620.192,251.936, 512,251.936zM 512,575.968c-70.72,0-128-57.28-128-128c0-70.688, 57.28-128, 128-128c 70.688,0, 128,57.312, 128,128C 640,518.656, 582.688,575.968, 512,575.968z
		 M 512,351.936c-52.992,0-96,43.008-96,96c0,52.992, 43.008,96, 96,96s 96-43.008, 96-96C 608,394.944, 564.992,351.936, 512,351.936z" data-tags="settings, cog, preferences" />
<glyph unicode="&#xe022;" d="M 933.248,624.896c-40,10.496-134.048,10.368-271.616,14.016
		c 6.496,30.016, 8,57.088, 8,105.152C 669.632,858.88, 585.984,960, 512,960c-52.256,0-95.328-42.72-96-95.264c-0.704-64.448-20.64-175.744-128-232.192
		c-7.872-4.16-30.4-15.264-33.696-16.704L 256,614.4C 239.2,628.896, 215.904,640, 192,640L 96,640 c-52.928,0-96-43.072-96-96l0-512 c0-52.928, 43.072-96, 96-96l 96,0 
		c 38.080,0, 69.952,23.008, 85.376,55.264c 0.384-0.128, 1.056-0.32, 1.504-0.384c 2.112-0.576, 4.608-1.184, 7.648-1.984
		C 287.104-11.264, 287.392-11.328, 288-11.488c 18.432-4.576, 53.92-13.056, 129.76-30.496C 434.016-45.696, 519.904-64, 608.864-64l 174.944,0 
		c 53.312,0, 91.744,20.512, 114.624,61.696c 0.32,0.64, 7.68,15.008, 13.696,34.432c 4.512,14.624, 6.176,35.328, 0.736,56.32
		c 34.368,23.616, 45.44,59.328, 52.64,82.56c 12.064,38.112, 8.448,66.752, 0.064,87.264c 19.328,18.24, 35.808,46.048, 42.752,88.512
		c 4.32,26.304-0.32,53.376-12.448,75.904c 18.112,20.352, 26.368,45.952, 27.328,69.632l 0.384,6.688C 1023.808,503.2, 1024,505.792, 1024,515.008
		C 1024,555.424, 996,606.976, 933.248,624.896z M 224,32c0-17.696-14.304-32-32-32L 96,0 c-17.696,0-32,14.304-32,32L 64,544 c0,17.696, 14.304,32, 32,32l 96,0 
		c 17.696,0, 32-14.304, 32-32L 224,32 z M 959.264,494.88C 958.624,479.072, 952,448, 896,448c-48,0-64,0-64,0c-8.864,0-16-7.168-16-16S 823.136,416, 832,416
		c0,0, 14.016,0, 62.016,0s 54.304-39.808, 51.2-59.008C 941.248,333.12, 930.048,288, 876,288C 822.016,288, 800,288, 800,288c-8.864,0-16-7.136-16-16
		c0-8.8, 7.136-16, 16-16c0,0, 38.016,0, 63.008,0c 54.016,0, 49.248-41.184, 41.504-65.76C 894.304,157.952, 888.064,128, 820,128
		c-23.008,0-52.192,0-52.192,0c-8.864,0-16-7.136-16-16c0-8.8, 7.136-16, 16-16c0,0, 22.176,0, 50.176,0
		c 35.008,0, 36.64-33.12, 32.992-44.992c-4-12.992-8.736-22.624-8.928-23.072C 832.384,10.496, 816.8,0, 783.808,0l-174.944,0 
		c-87.872,0-175.040,19.936-177.28,20.448c-132.928,30.624-139.936,32.992-148.288,35.36c0,0-27.072,4.576-27.072,28.192L 256,525.984
		c0,15.008, 9.568,28.576, 25.408,33.344c 1.984,0.768, 4.672,1.6, 6.592,2.4c 146.176,60.544, 190.688,193.28, 192,302.272c 0.192,15.328, 12,32, 32,32
		c 33.824,0, 93.632-67.904, 93.632-151.936C 605.632,668.192, 602.56,655.072, 576,576c 320,0, 317.76-4.608, 345.984-12C 956.992,553.984, 960,524.992, 960,515.008
		C 960,504.032, 959.68,505.632, 959.264,494.88zM 144,128C 117.504,128, 96,106.496, 96,80S 117.504,32, 144,32
		S 192,53.504, 192,80S 170.496,128, 144,128z M 144,64C 135.2,64, 128,71.2, 128,80S 135.2,96, 144,96S 160,88.8, 160,80S 152.8,64, 144,64z" data-tags="like, thumbs up, approve" />
<glyph unicode="&#xe023;" d="M 938.688,864L 800,864 L 800,928 c0,17.696-14.304,32-32,32s-32-14.304-32-32l0-64 l-192,0 L 544,928 c0,17.696-14.336,32-32,32s-32-14.304-32-32l0-64 L 288,864 L 288,928 
		c0,17.696-14.336,32-32,32S 224,945.696, 224,928l0-64 L 85.344,864 C 38.208,864,0,825.824,0,778.688l0-757.344 C0-25.792, 38.208-64, 85.344-64l 853.344,0 
		C 985.824-64, 1024-25.792, 1024,21.344L 1024,778.688 C 1024,825.824, 985.824,864, 938.688,864z M 960,21.344C 960,9.568, 950.432,0, 938.688,0L 85.344,0 
		C 73.568,0, 64,9.568, 64,21.344L 64,778.688 C 64,790.432, 73.568,800, 85.344,800L 224,800 l0-64 c0-17.696, 14.336-32, 32-32s 32,14.304, 32,32L 288,800 l 192,0 l0-64 c0-17.696, 14.336-32, 32-32
		s 32,14.304, 32,32L 544,800 l 192,0 l0-64 c0-17.696, 14.304-32, 32-32s 32,14.304, 32,32L 800,800 l 138.688,0 C 950.432,800, 960,790.432, 960,778.688L 960,21.344 zM 224,576L 352,576L 352,480L 224,480zM 224,416L 352,416L 352,320L 224,320zM 224,256L 352,256L 352,160L 224,160zM 448,256L 576,256L 576,160L 448,160zM 448,416L 576,416L 576,320L 448,320zM 448,576L 576,576L 576,480L 448,480zM 672,256L 800,256L 800,160L 672,160zM 672,416L 800,416L 800,320L 672,320zM 672,576L 800,576L 800,480L 672,480z" data-tags="calendar, date, schedule" />
<glyph unicode="&#xe024;" d="M 512,639.968c-141.408,0-256-114.592-256-256c0-141.376, 114.592-256, 256-256
		c 141.376,0, 256,114.624, 256,256C 768,525.344, 653.376,639.968, 512,639.968z M 657.76,259.008c-68.992-80.512-190.176-89.824-270.688-20.8
		c-80.544,68.992-89.824,190.208-20.8,270.688c 68.96,80.544, 190.176,89.824, 270.688,20.8C 717.44,460.736, 726.752,339.488, 657.76,259.008zM 512,511.968 C 520.832,511.968 528,504.8 528,495.968 C 528,487.136 520.832,479.968 512,479.968 C 458.976,479.968 416.032,436.992 416,384 L 416,383.936 C 416,375.136 408.832,367.936 400,367.936 C 391.168,367.936 384,375.136 384,383.936 L 384,384 C 384.032,454.656 441.312,511.968 512,511.968 ZM 943.744,670.656l-138.688,23.136l-43.936,109.888
		C 746.432,840.32, 711.424,864, 672,864L 352,864 C 312.576,864, 277.568,840.32, 262.848,803.648L 218.944,693.792L 80.288,670.656C 33.76,662.944,0,623.136,0,576l0-480 
		c0-52.928, 43.072-96, 96-96l 832,0 c 52.928,0, 96,43.072, 96,96L 1024,576 C 1024,623.136, 990.24,662.944, 943.744,670.656z M 960,96c0-17.696-14.304-32-32-32L 96,64 
		c-17.696,0-32,14.304-32,32L 64,576 c0,15.648, 11.328,28.992, 26.752,31.552l 174.208,29.024l 57.312,143.296C 327.168,792, 338.912,800, 352,800l 320,0 
		c 13.056,0, 24.8-7.968, 29.696-20.128l 57.312-143.296l 174.24-29.024C 948.672,604.992, 960,591.648, 960,576L 960,96 z" data-tags="camera, photo, image" />
<glyph unicode="&#xe025;" d="M 1004.512,515.744l-160,256c-23.36,37.408-64.384,60.16-108.512,60.16L 128,831.904 
		c-70.688,0-128-57.312-128-128l0-512 c0-70.688, 57.312-128, 128-128l 608,0 c 44.128,0, 85.12,22.752, 108.512,60.192l 160,256C 1030.496,421.536, 1030.496,474.24, 1004.512,515.744z
		 M 950.24,414.016l-160-256.064c-11.744-18.816-32.064-30.048-54.24-30.048L 128,127.904 c-35.296,0-64,28.736-64,64l0,512 c0,35.296, 28.704,64, 64,64l 608,0 
		c 22.176,0, 42.496-11.264, 54.24-30.048l 160-256C 963.136,461.216, 963.136,434.592, 950.24,414.016zM 736,543.904c-53.056,0-96-42.976-96-96c0-53.024, 42.944-96, 96-96
		c 52.992,0, 96,43.008, 96,96C 832,500.928, 788.992,543.904, 736,543.904z M 736,383.872c-35.36,0-64,28.672-64,64c0,35.328, 28.64,64, 64,64
		c 35.328,0, 64-28.672, 64-64C 800,412.576, 771.328,383.872, 736,383.872z" data-tags="tag, price" />
<glyph unicode="&#xe026;" d="M 1005.248,717.28l-192,192C 801.248,921.28, 784.928,928, 768,928L 96,928 
		C 43.072,928,0,884.96,0,832l0-768 c0-52.928, 43.072-96, 96-96l 832,0 c 52.928,0, 96,43.072, 96,96L 1024,672 C 1024,688.992, 1017.248,705.28, 1005.248,717.28z M 960,64
		c0-17.696-14.304-32-32-32L 96,32 c-17.696,0-32,14.304-32,32L 64,832 c0,17.696, 14.304,32, 32,32l 640,0 l0-128 l-0.064,0 c0-53.024, 43.008-96, 96-96l 32,0 L 960,640 L 960,64 z M 863.936,672l-32,0 
		c-35.264,0-64,28.704-64,64L 768,736 L 768,864 l 192-192L 863.936,672 zM 496,704 C 487.168,704 480,711.136 480,720 C 480,728.864 487.168,736 496,736 L 656,736 C 664.8,736 672,728.832 672,720 C 672,711.168 664.8,704 656,704 L 496,704 ZM 496,608 C 487.168,608 480,615.168 480,624 C 480,632.832 487.168,640 496,640 L 656,640 C 664.8,640 672,632.832 672,624 C 672,615.168 664.8,608 656,608 L 496,608 ZM 480,528 C 480,536.864 487.168,544 496,544 L 880,544 C 888.8,544 896,536.832 896,528 C 896,519.168 888.8,512 880,512 L 496,512 C 487.168,512 480,519.168 480,528 ZM 880,352 C 888.8,352 896,344.864 896,336 C 896,327.2 888.8,320 880,320 L 144,320 C 135.168,320 128,327.2 128,336 C 128,344.864 135.168,352 144,352 L 880,352 ZM 880,256 C 888.8,256 896,248.864 896,240 C 896,231.2 888.8,224 880,224 L 144,224 C 135.168,224 128,231.2 128,240 C 128,248.864 135.168,256 144,256 L 880,256 ZM 880,160 C 888.8,160 896,152.864 896,144 C 896,135.2 888.8,128 880,128 L 144,128 C 135.168,128 128,135.2 128,144 C 128,152.864 135.168,160 144,160 L 880,160 ZM 880,448 C 888.8,448 896,440.832 896,432 C 896,423.168 888.8,416 880,416 L 144,416 C 135.168,416 128,423.136 128,432 C 128,440.864 135.168,448 144,448 L 880,448 ZM 160,512l 224,0 c 17.696,0, 32,14.304, 32,32L 416,736 c0,17.696-14.304,32-32,32L 160,768 
		C 142.304,768, 128,753.696, 128,736l0-192 C 128,526.336, 142.304,512, 160,512z M 192,704l 160,0 l0-128 L 192,576 L 192,704 z" data-tags="note, paper" />
<glyph unicode="&#xe027;" d="M 480,640A32,32 900 1 0 544,640A32,32 900 1 0 480,640zM 480,256A32,32 900 1 0 544,256A32,32 900 1 0 480,256zM 288,448A32,32 900 1 0 352,448A32,32 900 1 0 288,448zM 672,448A32,32 900 1 0 736,448A32,32 900 1 0 672,448zM 344.224,312.256A32,32 900 1 0 408.224,312.256A32,32 900 1 0 344.224,312.256zM 344.224,583.776A32,32 900 1 0 408.224,583.7760000000001A32,32 900 1 0 344.224,583.7760000000001zM 615.744,312.256A32,32 900 1 0 679.744,312.256A32,32 900 1 0 615.744,312.256zM 832,512c-2.24,0-4.128-1.056-6.304-1.28c-11.136,55.84-37.44,105.792-73.504,147.008L 706.24,907.712
		C 700.64,938.016, 674.176,960, 643.328,960l-256,0 c-30.848,0-57.28-22.016-62.944-52.32l-44.8-241.568C 225.824,608.928, 192,532.736, 192,448
		c0-82.656, 32.448-156.96, 83.872-213.696l 45.184-246.016C 326.688-41.984, 353.152-64, 384-64l 256,0 c 30.816,0, 57.248,22.016, 62.944,52.32l 45.568,245.824
		c 38.048,41.952, 65.696,93.44, 77.184,151.2C 827.872,385.056, 829.76,384, 832,384c 35.328,0, 64,28.672, 64,64C 896,483.36, 867.328,512, 832,512z M 387.328,896l 256,0 
		l 32-172.384C 628.064,751.104, 573.952,768, 515.328,768c-58.592,0-112.736-16.896-160-44.384L 387.328,896z M 640,0l-256,0 l-32,172.384
		C 399.232,144.928, 453.376,128, 512,128c 58.592,0, 112.768,16.928, 160,44.384L 640,0z M 512,192c-141.152,0-256,114.88-256,256c0,141.152, 114.848,256, 256,256
		c 141.152,0, 256-114.848, 256-256C 768,306.88, 653.12,192, 512,192zM 670.112,607.168 C 673.984,603.296 674.368,597.056 671.008,592.8 L 593.376,496.128 L 534.24,424.928 C 528.192,419.104 519.872,416.128 511.872,416.064 C 503.264,416.128 495.232,419.456 489.248,425.408 C 483.264,431.36 480,439.328 480,447.744 C 480,456.448 483.36,464.576 489.472,470.72 L 655.616,607.84 C 660,611.36 666.24,611.040 670.112,607.168 Z" data-tags="clock, time, wrist watch, watch" />
<glyph unicode="&#xe028;" d="M 800,544L 800,672 c0,159.072-128.928,288-288,288c-159.072,0-288-128.928-288-288l0-128 c-53.024,0-96-42.976-96-96l0-96 l0-32 l0-64 l0-32 c0-159.072, 128.928-288, 288-288l 192,0 
		c 159.072,0, 288,128.928, 288,288l0,32 l0,64 l0,32 l0,96 C 896,501.056, 852.992,544, 800,544z M 288,672c0,123.712, 100.288,224, 224,224c 123.712,0, 224-100.288, 224-224l0-128 l-64,0 L 672,671.936 
		c0,88.384-71.616,160-160,160c-88.384,0-160-71.616-160-160L 352,544 L 288,544 L 288,672 z M 640,672l0-0.096 L 640,544 l-256,0 L 384,671.936 L 384,672 c0,70.688, 57.312,128, 128,128C 582.688,800, 640,742.688, 640,672z M 832,352
		l0-32 l0-64 l0-32 c0-123.488-100.512-224-224-224l-192,0 c-123.488,0-224,100.512-224,224l0,32 l0,64 l0,32 l0,96 c0,17.664, 14.336,32, 32,32c 21.344,0, 42.656,0, 64,0l 448,0 c 21.312,0, 42.624,0, 64,0
		c 17.632,0, 32-14.336, 32-32L 832,352 zM 512,352 C 547.328,352 576,323.36 576,288 C 576,268.512 565.504,231.424 554.688,202.176 C 545.952,178.56 537.024,160.064 512,160.064 C 488.992,160.064 478.048,178.752 469.344,202.496 C 458.656,231.68 448,268.576 448,288 C 448,323.36 476.672,352 512,352 Z" data-tags="lock, security, private, encryption" />
<glyph unicode="&#xe029;" d="M 702.432,923.2c-262.464,105.088-560.48-22.464-665.6-284.96
		c-105.152-262.528, 22.464-560.576, 284.96-665.664c 262.496-105.12, 560.512,22.464, 665.632,284.96C 1092.576,520.064, 964.928,818.048, 702.432,923.2z
		 M 345.6,31.968C 116.288,123.808, 4.416,385.056, 96.224,614.4c 91.84,229.312, 353.12,341.216, 582.464,249.344c 229.312-91.808, 341.184-353.088, 249.376-582.4
		C 836.192,52, 574.944-59.84, 345.6,31.968zM 535.968,507.296c-32.8,13.152-70.080-2.816-83.232-35.616
		s 2.816-70.048, 35.584-83.2c 32.8-13.152, 70.112,2.816, 83.232,35.584C 584.672,456.864, 568.736,494.112, 535.968,507.296z M 500.224,418.144
		c-16.384,6.592-24.352,25.216-17.824,41.632c 6.592,16.384, 25.248,24.352, 41.632,17.824c 16.352-6.56, 24.32-25.216, 17.792-41.632
		C 535.264,419.584, 516.608,411.616, 500.224,418.144zM 583.488,626.080c-98.432,39.424-210.176-8.448-249.6-106.848
		c-39.424-98.432, 8.448-210.176, 106.848-249.6c 98.432-39.424, 210.176,8.416, 249.6,106.848S 681.952,586.688, 583.488,626.080z M 464.576,329.056
		c-65.536,26.208-97.472,100.896-71.264,166.4c 26.24,65.504, 100.864,97.472, 166.368,71.264c 65.568-26.24, 97.504-100.928, 71.328-166.432
		C 604.736,334.784, 530.080,302.784, 464.576,329.056zM 749.824,352.704 L 749.76,352.704 C 723.616,287.456 673.504,238.912 613.568,212.992 C 613.344,212.896 613.216,212.64 612.896,212.512 C 604.768,209.056 595.392,212.8 591.904,220.96 C 588.416,229.056 592.224,238.464 600.288,241.92 C 652.96,264.48 697.088,307.136 720.096,364.608 L 720.096,364.576 C 723.392,372.8 732.704,376.8 740.896,373.472 C 749.088,370.208 753.088,360.896 749.824,352.704 ZM 859.68,325.952 C 867.872,322.656 871.872,313.344 868.608,305.152 C 829.408,207.296 754.176,134.432 664.288,95.616 C 663.904,95.456 663.616,95.104 663.232,94.912 C 655.104,91.456 645.728,95.168 642.24,103.328 C 638.752,111.456 642.56,120.864 650.624,124.32 C 733.44,159.776 802.752,226.816 838.88,317.056 C 842.176,325.248 851.488,329.248 859.68,325.952 ZM 800.256,349.728 C 808.448,346.432 812.448,337.12 809.184,328.928 C 776.512,247.36 713.824,186.688 638.944,154.336 C 638.592,154.144 638.4,153.856 638.080,153.696 C 629.952,150.24 620.576,153.984 617.088,162.112 C 613.6,170.24 617.408,179.648 625.536,183.136 L 625.472,183.136 C 693.28,212.16 749.952,266.976 779.456,340.832 C 782.752,349.056 792.064,353.024 800.256,349.728 ZM 432.416,674.816 C 435.904,666.656 432.128,657.28 424,653.76 C 371.328,631.232 327.2,588.544 304.224,531.136 L 304.192,531.136 C 300.928,522.944 291.616,518.944 283.392,522.24 C 275.2,525.536 271.2,534.816 274.496,543.040 L 274.528,543.040 C 300.64,608.256 350.784,656.832 410.72,682.752 C 410.944,682.848 411.104,683.104 411.392,683.2 C 419.52,686.688 428.928,682.976 432.416,674.816 ZM 382.016,792.48 C 385.504,784.352 381.728,774.976 373.632,771.456 C 290.816,736 221.536,668.96 185.376,578.752 C 182.080,570.528 172.768,566.56 164.576,569.856 C 156.352,573.12 152.352,582.432 155.68,590.688 C 194.88,688.544 270.080,761.376 360,800.224 C 360.32,800.384 360.608,800.736 360.992,800.896 C 369.12,804.352 378.528,800.608 382.016,792.48 ZM 398.784,712.672 L 398.784,712.576 C 331.040,683.584 274.336,628.736 244.8,554.88 C 241.504,546.656 232.192,542.72 224,545.984 C 215.84,549.312 211.808,558.592 215.136,566.816 C 247.776,648.352 310.464,709.088 385.376,741.472 C 385.696,741.6 385.888,741.92 386.208,742.048 C 394.336,745.536 403.744,741.76 407.232,733.664 C 410.72,725.504 406.912,716.128 398.816,712.672 Z" data-tags="vynil, disk, cd" />
<glyph unicode="&#xe02a;" d="M 794.624,593.76C 788.672,602.656, 778.688,608, 768,608l-32,0 c-17.696,0-32-14.304-32-32l0-192 c0-17.696, 14.304-32, 32-32l 128,0 
		c 17.696,0, 32,14.304, 32,32l0,48 c0,6.304-1.888,12.512-5.376,17.76L 794.624,593.76z M 864,384l-128,0 l0,192 l 32,0 l 96-144L 864,384 zM 1007.872,469.248l-128,192C 862.016,688.032, 832.128,704, 800,704l-128,0 L 672,768 c0,52.928-43.072,96-96,96L 96,864 C 43.072,864,0,820.928,0,768l0-352 
		c0-52.928, 43.072-96, 96-96l0,0 l0-96 c0-52.928, 43.072-96, 96-96l 36.544,0 c 14.304-55.072, 64-96, 123.488-96c 59.424,0, 109.12,40.928, 123.424,96l 169.024,0 
		c 14.304-55.072, 64-96, 123.488-96c 59.424,0, 109.12,40.928, 123.424,96L 928,128 c 52.928,0, 96,43.072, 96,96l0,192 C 1024,435.008, 1018.432,453.44, 1007.872,469.248z M 96,384
		c-17.664,0-32,14.304-32,32L 64,768 c0,17.696, 14.336,32, 32,32l 480,0 c 17.696,0, 32-14.304, 32-32l0-64 l0-64 l0-224 c0-17.696-14.304-32-32-32L 96,384 z M 352.032,96
		c-35.36,0-64,28.672-64,64s 28.64,64, 64,64c 35.328,0, 64-28.672, 64-64S 387.328,96, 352.032,96z M 768,96c-35.36,0-64,28.672-64,64s 28.64,64, 64,64
		c 35.328,0, 64-28.672, 64-64S 803.328,96, 768,96z M 960,224c0-17.696-14.304-32-32-32l-36.576,0 c-14.304,55.072-64,96-123.424,96c-59.488,0-109.184-40.928-123.488-96
		l-169.024,0 c-14.304,55.072-64,96-123.424,96c-59.488,0-109.184-40.928-123.488-96L 192,192 c-17.664,0-32,14.304-32,32l0,96 l 416,0 c 52.928,0, 96,43.072, 96,96l0,224 l 128,0 
		c 10.688,0, 20.672-5.344, 26.624-14.24l 128-192C 958.112,428.512, 960,422.304, 960,416L 960,224 z" data-tags="truck, transport, transaction, shipping" />
<glyph unicode="&#xe02b;" d="M 1009.376,954.88C 1004.064,958.304, 998.016,960, 992,960c-6.176,0-12.384-1.76-17.76-5.376l-960-640
	c-9.888-6.56-15.328-18.112-14.048-29.952c 1.216-11.808, 8.896-22.016, 19.936-26.368l 250.368-100.192l 117.728-206.016
	c 5.632-9.888, 16.096-16, 27.424-16.128c 0.128,0, 0.224,0, 0.352,0c 11.232,0, 21.664,5.952, 27.424,15.552l 66.464,110.816l 310.24-124.064
	C 823.936-63.264, 827.936-64, 832-64c 5.44,0, 10.816,1.376, 15.68,4.128c 8.448,4.736, 14.24,13.056, 15.872,22.624l 160,960
	C 1025.632,935.328, 1020.064,947.936, 1009.376,954.88z M 100.352,295.136L 841.952,789.568L 302.752,212.384c-2.848,1.696-5.376,3.936-8.512,5.184
	L 100.352,295.136z M 326.048,189.888c-0.064,0.128-0.16,0.192-0.224,0.32L 932,839.008L 415.232,33.824L 326.048,189.888z M 806.944,12.512
	l-273.312,109.312c-6.496,2.56-13.248,3.424-19.936,3.808L 934.56,778.048L 806.944,12.512z" data-tags="paperplane, send, flight, email" />
<glyph unicode="&#xe02c;" d="M 512,960C 317.568,960, 160,802.432, 160,608c0-128.992, 118.016-265.696, 160.992-385.76C 385.088,43.2, 377.984-64, 512-64
		c 136,0, 126.88,106.688, 191.008,285.504C 746.112,341.824, 864,480, 864,608C 864,802.432, 706.368,960, 512,960z M 594.944,90.368l-158.656-19.808
		c-5.664,16.384-11.744,35.552-19.136,60.576c-0.096,0.32-0.224,0.672-0.288,0.992l 198.016,24.736c-2.816-9.44-5.824-19.36-8.448-28.256
		C 602.24,114.24, 598.496,101.76, 594.944,90.368z M 407.552,162.944c-5.824,19.264-12.384,39.552-19.68,61.056l 248.512,0 
		c-3.936-11.488-7.872-23.008-11.264-33.888L 407.552,162.944z M 512,0c-32.416,0-47.328,3.744-63.904,40l 135.616,16.992
		C 564.064,4.064, 549.76,0, 512,0z M 661.504,288l-298.656,0 c-15.936,34.56-35.072,69.12-53.952,102.944C 267.136,465.664, 224,542.944, 224,608
		c0,158.816, 129.184,288, 288,288c 158.816,0, 288-129.184, 288-288c0-64.576-43.2-142.272-84.992-217.44C 696.32,356.864, 677.312,322.368, 661.504,288zM 512,800 C 520.8,800 528,792.832 528,784 C 528,775.168 520.832,768 512,768 C 423.776,768 352,696.224 352,608 C 352,599.168 344.832,592 336,592 C 327.168,592 320,599.168 320,608 C 320,713.888 406.112,800 512,800 Z" data-tags="bulb, lamp, idea" />
<glyph unicode="&#xe02d;" d="M 940.64,877.44C 888,930.016, 818.688,960, 750.368,960c-57.632,0-110.688-21.376-149.44-60.064l-155.744-156.928
	c-0.48-0.448-1.024-0.736-1.504-1.216c-0.256-0.256-0.416-0.608-0.672-0.832l 0.064-0.064L 112.544,407.808
	c-15.232-15.136-26.272-33.984-32.416-54.56l-75.168-272.256C 4.896,80.256,0,58.88,0,48C0-13.824, 50.208-64, 112.128-64
	c 12.32,0, 36.16,5.888, 37.024,6.016l 271.296,71.328c 20.608,6.112, 39.328,17.248, 54.56,32.512l 488.416,492.256
	C 1052.256,627.008, 1042.24,776, 940.64,877.44z M 512.448,198.56c-2.624,28.864-10.784,57.184-23.008,84.064l 302.56,302.528
	c 18.496-58.432, 8.992-119.552-31.552-160.128c-0.256-0.256-0.576-0.416-0.8-0.672l 0.448-0.416l-247.296-249.28
	C 512.8,182.624, 513.184,190.432, 512.448,198.56z M 473.376,311.808c-11.936,19.616-25.504,38.56-42.304,55.328
	c-19.552,19.552-41.984,34.88-65.408,47.744l 305.024,305.024c 23.936-10.624, 46.88-25.76, 67.136-46.016c 17.312-17.248, 30.688-36.576, 40.992-56.672
	L 473.376,311.808z M 335.552,430.016c-29.632,11.936-60.672,18.752-91.776,19.168l 246.496,248.384c 37.728,36.8, 92.672,47.392, 146.784,33.984
	L 335.552,430.016z M 133.344,4.064C 129.856,3.264, 119.008,0.512, 111.648,0C 85.344,0.32, 64,21.696, 64,48
	c 0.384,5.376, 2.528,14.624, 3.264,17.984l 33.696,122.048c 36.576,0.992, 75.936-13.248, 106.88-44.256c 31.424-31.36, 46.208-71.488, 44.608-108.512
	L 133.344,4.064z M 283.968,43.616c-0.768,42.944-18.24,87.616-53.504,122.816C 197.12,199.808, 153.472,219.072, 109.952,220.8l 31.872,115.424
	c 2.304,7.68, 6.88,15.264, 12.512,21.888c 64.192,45.952, 162.912,32.384, 231.488-36.256c 72.544-72.512, 83.744-178.752, 27.872-242.176
	c-3.712-1.952-7.456-3.808-11.488-4.992L 283.968,43.616z M 918.112,583.296l-53.888-54.304c0,7.232, 0.864,14.176, 0.192,21.568
	c-5.632,61.92-34.496,121.792-81.376,168.608c-52.128,52.16-121.248,82.080-189.696,82.272l 52.992,53.44C 672.864,881.344, 709.888,896, 750.368,896
	c 51.488,0, 104.384-23.296, 145.056-63.84c 38.176-38.112, 60.928-85.472, 64.192-133.376C 962.624,654.080, 947.872,613.088, 918.112,583.296z" data-tags="pen, pencil, write, blog" />
<glyph unicode="&#xe02e;" d="M 256,767.328L 256,864 c0,52.928-43.072,96-96,96S 64,916.928, 64,864l0-96.672 
		C 25.344,738.048,0,692.192,0,640s 25.344-98.048, 64-127.264L 64,32 c0-52.928, 43.072-96, 96-96s 96,43.072, 96,96L 256,512.736 c 38.656,29.184, 64,75.072, 64,127.264
		S 294.656,738.048, 256,767.328z M 128,864c0,17.696, 14.304,32, 32,32s 32-14.304, 32-32l0-67.2 C 181.664,798.88, 170.976,800, 160,800S 138.336,798.88, 128,796.8L 128,864 z M 192,32
		c0-17.696-14.304-32-32-32s-32,14.304-32,32L 128,483.264 C 138.336,481.12, 149.024,480, 160,480s 21.664,1.12, 32,3.264L 192,32 z M 251.68,613.12
		c-0.512-1.696-0.96-3.36-1.568-5.056c-3.040-8.448-6.944-16.448-12.096-23.552c-0.128-0.192-0.32-0.32-0.448-0.512
		c-5.568-7.616-12.192-14.368-19.712-20.064c-0.128-0.128-0.224-0.192-0.32-0.256c-7.712-5.824-16.32-10.496-25.568-13.76
		C 181.952,546.304, 171.296,544, 160,544s-21.952,2.304-32,5.952c-9.248,3.264-17.856,7.936-25.568,13.76c-0.096,0.064-0.192,0.128-0.32,0.256
		c-7.52,5.696-14.144,12.448-19.712,20.064c-0.128,0.192-0.32,0.32-0.448,0.512c-5.152,7.136-9.056,15.136-12.096,23.552
		c-0.608,1.696-1.056,3.36-1.568,5.056C 65.76,621.696, 64,630.624, 64,640c0,9.44, 1.76,18.368, 4.32,26.944
		c 0.512,1.696, 0.96,3.36, 1.568,4.992C 72.896,680.384, 76.8,688.384, 81.984,695.552c 0.128,0.192, 0.32,0.32, 0.448,0.512
		c 5.568,7.552, 12.192,14.368, 19.712,20.064c 0.128,0.064, 0.224,0.192, 0.32,0.256C 110.144,722.112, 118.752,726.816, 128,730.112
		C 138.048,733.696, 148.704,736, 160,736s 21.952-2.304, 32-5.888c 9.248-3.328, 17.856-8, 25.568-13.76c 0.096-0.064, 0.192-0.192, 0.32-0.256
		c 7.52-5.696, 14.144-12.512, 19.712-20.064c 0.128-0.192, 0.32-0.32, 0.448-0.512C 243.2,688.384, 247.104,680.384, 250.112,671.936
		C 250.72,670.304, 251.2,668.64, 251.68,666.944C 254.24,658.368, 256,649.44, 256,640C 256,630.624, 254.24,621.696, 251.68,613.12zM 960,767.328L 960,864 c0,52.928-43.072,96-96,96s-96-43.072-96-96l0-96.672 
		C 729.312,738.048, 704,692.192, 704,640s 25.312-98.048, 64-127.264L 768,32 c0-52.928, 43.072-96, 96-96s 96,43.072, 96,96L 960,512.736 c 38.624,29.184, 64,75.072, 64,127.264
		S 998.624,738.048, 960,767.328z M 832,864c0,17.696, 14.304,32, 32,32s 32-14.304, 32-32l0-67.2 C 885.632,798.88, 874.944,800, 864,800c-11.008,0-21.696-1.12-32-3.2L 832,864 z
		 M 896,32c0-17.696-14.304-32-32-32s-32,14.304-32,32L 832,483.264 C 842.304,481.12, 852.992,480, 864,480c 10.944,0, 21.632,1.12, 32,3.264L 896,32 z M 955.68,613.12
		c-0.512-1.696-0.992-3.36-1.568-5.056c-3.072-8.448-6.944-16.448-12.128-23.552c-0.128-0.192-0.32-0.32-0.448-0.512
		c-5.568-7.616-12.192-14.368-19.68-20.064c-0.128-0.128-0.256-0.192-0.32-0.256c-7.744-5.824-16.32-10.496-25.568-13.76
		C 885.952,546.304, 875.264,544, 864,544c-11.328,0-21.952,2.304-32,5.952c-9.248,3.264-17.888,7.936-25.568,13.76
		c-0.128,0.064-0.192,0.128-0.32,0.256c-7.552,5.696-14.176,12.448-19.744,20.064c-0.128,0.192-0.32,0.32-0.448,0.512
		c-5.12,7.136-9.056,15.136-12.064,23.552c-0.64,1.696-1.056,3.36-1.568,5.056C 769.76,621.696, 768,630.624, 768,640
		c0,9.44, 1.76,18.368, 4.32,26.944c 0.512,1.696, 0.928,3.36, 1.568,4.992c 3.008,8.448, 6.944,16.448, 12.064,23.616
		c 0.128,0.192, 0.32,0.32, 0.448,0.512c 5.568,7.552, 12.192,14.368, 19.744,20.064c 0.128,0.064, 0.192,0.192, 0.32,0.256
		c 7.68,5.76, 16.32,10.432, 25.568,13.76C 842.048,733.696, 852.672,736, 864,736c 11.264,0, 21.952-2.304, 32-5.888c 9.248-3.328, 17.824-8, 25.568-13.76
		c 0.064-0.064, 0.192-0.192, 0.32-0.256c 7.488-5.696, 14.112-12.512, 19.68-20.064c 0.128-0.192, 0.32-0.32, 0.448-0.512
		c 5.184-7.2, 9.056-15.2, 12.128-23.616c 0.576-1.632, 1.056-3.328, 1.568-4.992C 958.24,658.368, 960,649.44, 960,640
		C 960,630.624, 958.24,621.696, 955.68,613.12zM 608,383.328L 608,864 c0,52.928-43.072,96-96,96s-96-43.072-96-96l0-480.672 
		c-38.656-29.248-64-75.136-64-127.328s 25.344-98.048, 64-127.264L 416,32 c0-52.928, 43.072-96, 96-96s 96,43.072, 96,96l0,96.736 c 38.624,29.184, 64,75.072, 64,127.264
		S 646.624,354.048, 608,383.328z M 480,864c0,17.696, 14.304,32, 32,32c 17.696,0, 32-14.304, 32-32l0-451.2 c-10.368,2.048-21.056,3.2-32,3.2
		c-10.976,0-21.664-1.12-32-3.2L 480,864 z M 544,32c0-17.696-14.304-32-32-32c-17.696,0-32,14.304-32,32l0,67.264 C 490.336,97.12, 501.024,96, 512,96
		c 10.944,0, 21.632,1.12, 32,3.264L 544,32 z M 603.68,229.12c-0.512-1.696-0.992-3.36-1.568-5.056c-3.072-8.448-6.944-16.448-12.128-23.552
		c-0.128-0.192-0.32-0.32-0.448-0.512c-5.568-7.616-12.192-14.368-19.68-20.064c-0.128-0.128-0.256-0.192-0.32-0.256
		c-7.744-5.824-16.32-10.496-25.568-13.76C 533.952,162.304, 523.264,160, 512,160c-11.296,0-21.952,2.304-32,5.952
		c-9.248,3.264-17.856,7.936-25.568,13.76c-0.096,0.064-0.192,0.128-0.32,0.256c-7.52,5.696-14.144,12.448-19.712,20.064
		c-0.128,0.192-0.32,0.32-0.448,0.512c-5.152,7.136-9.056,15.136-12.096,23.552c-0.608,1.696-1.056,3.36-1.568,5.056
		C 417.76,237.696, 416,246.624, 416,256c0,9.44, 1.76,18.368, 4.32,26.944c 0.512,1.696, 0.96,3.36, 1.568,4.992
		c 3.040,8.448, 6.944,16.448, 12.096,23.616c 0.128,0.192, 0.32,0.32, 0.448,0.512c 5.568,7.552, 12.192,14.368, 19.712,20.064
		c 0.128,0.064, 0.224,0.192, 0.32,0.256c 7.712,5.76, 16.32,10.432, 25.568,13.76C 490.048,349.696, 500.704,352, 512,352c 11.264,0, 21.952-2.304, 32-5.888
		c 9.248-3.328, 17.824-8, 25.568-13.76c 0.064-0.064, 0.192-0.192, 0.32-0.256c 7.488-5.696, 14.112-12.512, 19.68-20.064
		c 0.128-0.192, 0.32-0.32, 0.448-0.512c 5.184-7.2, 9.056-15.2, 12.128-23.616c 0.576-1.632, 1.056-3.328, 1.568-4.992
		C 606.24,274.368, 608,265.44, 608,256C 608,246.624, 606.24,237.696, 603.68,229.12z" data-tags="params, equalizer, preferences, settings, options" />
<glyph unicode="&#xe02f;" d="M 496,960C 222.048,960,0,737.952,0,464S 222.048-32, 496-32S 992,190.048, 992,464S 769.952,960, 496,960z M 927.2,480
	l-191.872,0 c-1.76,70.88-14.368,138.592-36.736,200.576c 43.2,18.016, 83.136,41.984, 119.552,70.304C 882.88,678.208, 923.36,583.84, 927.2,480z
	 M 478.304,32.896c-53.184,44.288-97.792,101.792-130.432,168.576c 41.888,13.088, 86.272,20.256, 132.128,21.728l0-190.368 
	C 479.424,32.832, 478.88,32.864, 478.304,32.896z M 513.632,895.104c 60.352-50.24, 109.6-117.536, 142.912-196.032c-45.632-15.584-94.112-24.64-144.576-26.24
	L 511.968,895.2 C 512.576,895.168, 513.088,895.136, 513.632,895.104z M 566.944,889.664c 88.32-14.688, 167.552-55.936, 229.248-115.648
	c-33.504-25.696-70.112-47.456-109.696-63.936C 657.376,779.104, 616.512,840.128, 566.944,889.664z M 480,895.2l0-222.368 
	c-50.464,1.632-98.976,10.656-144.576,26.24c 33.312,78.496, 82.56,145.792, 142.912,196.032C 478.912,895.136, 479.424,895.168, 480,895.2z M 305.472,710.048
	c-39.52,16.48-76.16,38.24-109.664,63.936c 61.664,59.712, 140.928,100.96, 229.248,115.648C 375.456,840.128, 334.624,779.104, 305.472,710.048z M 323.36,669.568
	C 372.704,652.448, 425.28,642.464, 480,640.8L 480,480 L 288.672,480 C 290.4,547.008, 302.272,611.040, 323.36,669.568z M 480,448l0-192.8 
	c-50.464-1.536-99.264-9.792-145.248-24.608C 307.040,296.576, 290.688,370.080, 288.672,448L 480,448 z M 425.056,38.336
	c-79.136,13.152-151.008,47.616-209.44,97.664c 31.52,21.856, 65.6,40.352, 102.016,54.4C 345.536,132.544, 382.048,81.184, 425.056,38.336z M 512,32.8
	l0,190.368 c 45.824-1.472, 90.24-8.64, 132.128-21.728c-32.672-66.784-77.248-124.288-130.432-168.576C 513.152,32.864, 512.576,32.832, 512,32.8z
	 M 674.368,190.4c 36.384-14.048, 70.432-32.576, 102.016-54.4c-58.432-50.016-130.304-84.512-209.44-97.664C 609.952,81.184, 646.432,132.544, 674.368,190.4z
	 M 657.248,230.592c-46.016,14.816-94.816,23.072-145.248,24.608L 512,448 l 191.328,0 C 701.312,370.080, 684.928,296.576, 657.248,230.592z M 512,480L 512,640.8 
	c 54.688,1.664, 107.264,11.616, 156.64,28.736c 21.056-58.528, 32.928-122.56, 34.688-189.568L 512,479.968 z M 173.888,750.88C 210.304,722.56, 250.24,698.592, 293.408,680.576
	C 271.040,618.592, 258.432,550.88, 256.672,480L 64.8,480 C 68.64,583.84, 109.12,678.208, 173.888,750.88z M 64.8,448l 191.872,0 
	c 1.984-81.76, 19.072-158.976, 48.096-228.384c-40.544-15.808-78.336-36.864-113.216-61.792C 116.416,232.608, 68.992,334.848, 64.8,448z M 800.448,157.856
	c-34.88,24.896-72.672,45.984-113.248,61.792c 29.056,69.408, 46.112,146.624, 48.128,228.384l 191.872,0 C 923.008,334.848, 875.552,232.608, 800.448,157.856z" data-tags="world, globe, internet, network" />
<glyph unicode="&#xe032;" d="M 737.229,68.198c 13.722-13.875, 13.722-36.25,0-50.125s-35.891-13.875-49.613,0l-400.896,404.838c-13.722,13.875-13.722,36.301,0,50.125
	l 400.896,404.89c 13.722,13.875, 35.891,13.875, 49.613,0s 13.722-36.25,0-50.125L 371.661,448L 737.229,68.198z" data-tags="arrow-left, previous, left" />
<glyph unicode="&#xe033;" d="M 286.704,68.198c -13.722-13.875, -13.722-36.25,0-50.125s 35.891-13.875 49.613,0l 400.896,404.838c 13.722,13.875 13.722,36.301,0,50.125
	l -400.896,404.89c -13.722,13.875, -35.891,13.875, -49.613,0s -13.722-36.25,0-50.125L 652.272,448L 286.704,68.198z" />
<glyph unicode="&#xe034;" d="M 634.829,272.998c 13.722-13.875, 13.722-36.301,0-50.125c-13.722-13.875-35.891-13.875-49.613,0l-196.096,200.038
	c-13.722,13.875-13.722,36.301,0,50.125l 196.096,200.090c 13.722,13.875, 35.891,13.875, 49.613,0s 13.722-36.25,0-50.125L 474.061,448L 634.829,272.998z" data-tags="arrow-left, left, previous" />
<glyph unicode="&#xe035;" d="M 389.171,272.998c-13.722-13.875-13.722-36.301,0-50.125c 13.67-13.875, 35.891-13.875, 49.613,0l 196.096,200.038
	c 13.722,13.875, 13.722,36.301,0,50.125l-196.096,200.090c-13.722,13.875-35.891,13.875-49.613,0S 375.45,636.877, 389.12,623.053L 549.939,448L 389.171,272.998z" data-tags="arrow-right, right, next" />
<glyph unicode="&#xe036;" d="M 716.749,683.52L 716.8,212.48L 307.2,448 z" data-tags="arrow-left, left, triangle, previous" />
<glyph unicode="&#xe037;" d="M 307.251,683.52L 307.2,212.48L 716.8,448 z" data-tags="arrow-right, triangle, right, next" />
<glyph unicode="&#xe038;" d="M 585.574,728.781c-21.402-20.89-230.502-240.435-230.502-240.435C 343.654,477.184, 337.971,462.592, 337.971,448s 5.683-29.184, 17.101-40.346
	c0,0, 209.101-219.546, 230.502-240.384c 21.402-20.89, 59.904-22.323, 82.739,0c 22.784,22.272, 24.576,53.35-0.051,80.64L 476.416,448l 191.846,200.090
	c 24.627,27.341, 22.835,58.419, 0.051,80.691C 645.427,751.053, 606.925,749.67, 585.574,728.781z" data-tags="arrow-left, left, previous" />
<glyph unicode="&#xe039;" d="M 438.426,728.781c 21.402-20.89, 230.502-240.435, 230.502-240.435C 680.397,477.184, 686.080,462.592, 686.080,448s-5.683-29.184-17.152-40.346
	c0,0-209.101-219.546-230.502-240.384c-21.402-20.89-59.853-22.323-82.739,0c-22.835,22.272-24.627,53.35,0,80.64L 547.584,448L 355.738,648.090
	c-24.627,27.341-22.835,58.419,0,80.691C 378.573,751.053, 417.075,749.67, 438.426,728.781z" data-tags="arrow-right, right, next" />
<glyph unicode="&#xf182;" d="M 731.429,356.571q0-22.857 -16-38.857t-38.857-16q-29.143,0 -45.714,24.571l-129.714,194.857l-25.714,0 l0-75.429 l 141.143-234.857q 5.143-8.571 5.143-18.857q0-14.857 -10.857-25.714t-25.714-10.857l-109.714,0 l0-155.429 q0-26.286 -18.857-45.143t-45.143-18.857l-91.429,0 q-26.286,0 -45.143,18.857t-18.857,45.143l0,155.429 l-109.714,0 q-14.857,0 -25.714,10.857t-10.857,25.714q0,10.286 5.143,18.857l 141.143,234.857l0,75.429 l-25.714,0 l-129.714-194.857q-16.571-24.571 -45.714-24.571 q-22.857,0 -38.857,16t-16,38.857q0,16.571 9.143,30.286l 146.286,219.429q 41.714,61.143 100.571,61.143l 219.429,0 q 58.857,0 100.571-61.143l 146.286-219.429q 9.143-13.714 9.143-30.286zM 493.714,813.714q0-53.143 -37.429-90.571t-90.571-37.429t-90.571,37.429t-37.429,90.571t 37.429,90.571t 90.571,37.429t 90.571-37.429t 37.429-90.571z" horiz-adv-x="731.429" data-tags="female, gender, sex, woman" />
<glyph unicode="&#xf183;" d="M 585.143,557.714l0-237.714 q0-22.857 -16-38.857t-38.857-16t-38.857,16t-16,38.857l0,201.143 l-36.571,0 l0-521.143 q0-26.286 -18.857-45.143t-45.143-18.857t-45.143,18.857t-18.857,45.143l0,265.143 l-36.571,0 l0-265.143 q0-26.286 -18.857-45.143t-45.143-18.857t-45.143,18.857t-18.857,45.143l0,521.143 l-36.571,0 l0-201.143 q0-22.857 -16-38.857t-38.857-16t-38.857,16t-16,38.857l0,237.714 q0,45.714 32,77.714t 77.714,32l 365.714,0 q 45.714,0 77.714-32t 32-77.714z M 420.571,813.714q0-53.143 -37.429-90.571t-90.571-37.429t-90.571,37.429t-37.429,90.571t 37.429,90.571t 90.571,37.429t 90.571-37.429t 37.429-90.571z" horiz-adv-x="585.143" data-tags="male, gender, sex, man" />
<glyph unicode="&#x20;" horiz-adv-x="512" />
</font>
</defs>
</svg>
